Торрент файл
скачать торрент магнет ссылка Добавлен: 20 янв 2012, 22:23
Размер: 2.1 ГБ
Сидеров: 31
Личеров: 6
Автор

СообщениеДобавлено: 20 янв 2012, 22:23 

Не в сети
Супермодератор
Аватара пользователя
Дата регистрации:
11 апр 2010, 18:10
Спасибо: 5960 / 7
Сообщения: 56765
Пляж/ The Beach



Перевод: Профессиональный (многоголосый, закадровый),субтитры: отсутствуют
Формат: DVDRip-AVC, MKV, H.264, AC3
Страна: США, Великобритания
Жанр: триллер, драма, мелодрама, приключения
Продолжительность: 01:59:00
Режиссер: Дэнни Бойл / Danny Boyle
Год выпуска: 2000

В ролях: Леонардо ДиКаприо, Дэниэл Йорк, Патчараван Патаракижанон, Вирджиния Ледуайен, Гийом Кане, Роберт Карлайл, Сомбун Футарот, Уиратэм Норман Вичаираксакуй, Джек Бун, Питер Янгблад Хиллз

Описание:Ричард — американский юноша, жаждущий приключений — отправляется в Тайланд, где в дешевой гостинице знакомится со странным человеком. Этот человек передает ему карту таинственного острова, где «трава» растет как сорняк, а на пляже живет коммуна. Это и есть рай на Земле. Ричард знакомится с парочкой французов, и они втроем отправляются на этот остров.

________

Видео: 1008 x 400 (2:52:0), 23,976 кадр/сек, AVC (х264), High@L3.0, ~ 2143 Kbps,0.222 bit/pixel
Аудио: 48 kHz, AC3 Dolby Digital, 3/2 (L,C,R,l,r) + LFE ch, ~384 kbps


Автор РИПа:ddimmon22
Общее
Уникальный идентификатор: 249409148420701521334413092942378828369 (0xBBA274697F34E11BBCC7DF839ECE0251)
Полное имя: I:\oktzbr rupu\the beach_[tfile.ru].mkv
Формат: Matroska
Версия формата: Version 2
Размер файла: 2,10 Гбайт
Продолжительность: 1 ч. 59 м.
Общий поток: 2528 Кбит/сек
Дата кодирования: UTC 2011-10-15 20:32:52
Программа кодирования: mkvmerge v4.9.1 ('Ich will') сборка от Aug 10 2011 09:31:20
Библиотека кодирования: libebml v1.2.1 + libmatroska v1.2.0

Видео
Идентификатор: 1
Формат: AVC
Формат/Информация: Advanced Video Codec
Профиль формата: High@L3.0
Параметр CABAC формата: Да
Параметр ReFrames формата: 4 кадра
Идентификатор кодека: V_MPEG4/ISO/AVC
Продолжительность: 1 ч. 59 м.
Битрейт: 2143 Кбит/сек
Ширина: 1008 пикс.
Высота: 400 пикс.
Соотношение сторон: 2,520
Частота кадров: 23,976 кадр/сек
Цветовое пространство: YUV
Подвыборка цветности: 4:2:0
Битовая глубина: 8 бит
Тип развёртки: Прогрессивная
Бит/(Пиксели*Кадры): 0.222
Размер потока: 1,74 Гбайт (83%)
Библиотека кодирования: x264 core 116 r2074 2641b9e
Настройки программы: cabac=1 / ref=3 / deblock=1:0:0 / analyse=0x3:0x113 / me=hex / subme=7 / psy=1 / psy_rd=1.00:0.00 / mixed_ref=1 / me_range=16 / chroma_me=1 / trellis=1 / 8x8dct=1 / cqm=0 / deadzone=21,11 / fast_pskip=1 / chroma_qp_offset=-2 / threads=6 / sliced_threads=0 / nr=0 / decimate=1 / interlaced=0 / bluray_compat=0 / constrained_intra=0 / bframes=3 / b_pyramid=2 / b_adapt=1 / b_bias=0 / direct=1 / weightb=1 / open_gop=0 / weightp=2 / keyint=250 / keyint_min=23 / scenecut=40 / intra_refresh=0 / rc_lookahead=40 / rc=2pass / mbtree=1 / bitrate=2143 / ratetol=1.0 / qcomp=0.60 / qpmin=0 / qpmax=69 / qpstep=4 / cplxblur=20.0 / qblur=0.5 / ip_ratio=1.40 / aq=1:1.00

Аудио
Идентификатор: 2
Формат: AC-3
Формат/Информация: Audio Coding 3
Расширение режима: CM (complete main)
Идентификатор кодека: A_AC3
Продолжительность: 1 ч. 59 м.
Вид битрейта: Постоянный
Битрейт: 384 Кбит/сек
Каналы: 6 каналов
Расположение каналов: Front: L C R, Side: L R, LFE
Частота: 48,0 КГц
Битовая глубина: 16 бит
Метод сжатия: С потерями
Размер потока: 327 Мбайт (15%)

















Поделиться:




реклама партнёра


Вернуться к началу
 Профиль Отправить личное сообщение  
 
   Похожие торренты   Автор   Торрент   Размер 
В этой теме нет новых непрочитанных сообщений. Чудо-пляж / Miracle Beach [мелодрама, комедия, 1992] BDRip, Dvo [НТВ+]

salma3

256 | 11

1.45 ГБ

В этой теме нет новых непрочитанных сообщений. Чудо-пляж / Miracle Beach [мелодрама, комедия, 1992] BDRemux 1080р, Dvo [НТВ+]

salma3

18 | 45

17.44 ГБ

В этой теме нет новых непрочитанных сообщений. Дэнни Цепной пес / Danny the Dog [Боевик, Триллер, Драма, Криминал, 2005] BDRip-AVC, Mvo+Dvo+Avo

salma3

39 | 70

2.83 ГБ

В этой теме нет новых непрочитанных сообщений. Стив Джобс / Steve Jobs (Дэнни Бойл) [драма, биография, 2015] HDRip, dub [Чистый звук]

Dracon

4644 | 236

1.45 ГБ

В этой теме нет новых непрочитанных сообщений. Лето. Пляж 2 / Teen Beach 2 [Комедия, Мюзикл, 2015] WEB-DLRip, Dub

salma3

8 | 3

1.37 ГБ

В этой теме нет новых непрочитанных сообщений. Последний рыцарь / Don Quixote [драма, мелодрама, комедия, приключения, 2000] DVDRip, Dvo

salma3

20 | 14

2.1 ГБ

В этой теме нет новых непрочитанных сообщений. Страсть / The Right Temptation [триллер, драма, мелодрама, 2000] WEB-DL 720p, Dvo

salma3

26 | 11

3.04 ГБ


Начать новую тему Ответить на тему  [ 1 сообщение ] 




Для Мосгорсуда, Роскомнадзора и рекламодателей:: mosgorsud-torrent[собачка]yandex.ru