Торрент файл
скачать торрент магнет ссылка Добавлен: 20 янв 2012, 22:23
Размер: 2.1 ГБ
Сидеров: 170
Личеров: 16
Автор

СообщениеДобавлено: 20 янв 2012, 22:23 

Не в сети
Супермодератор
Аватара пользователя
Дата регистрации:
11 апр 2010, 18:10
Спасибо: 5801 / 7
Сообщения: 56779
Леон: Профессионал [Режиссерская версия] / Leon, The Professional [Director's cut]



Перевод: Профессиональный (полное дублирование).субтитры: отсутствуют
Формат: HDRip-AVC, MKV, H.264, AC3
Страна: Франция
Жанр: триллер, драма, криминал
Продолжительность: 02:12:00
Режиссер: Люк Бессон / Luc Besson
Год выпуска: 1994

В ролях: Жан Рено, Гари Олдман, Натали Портман, Дэнни Айелло, Питер Эппел, Уилли Уан Блад, ДонКрич, Кейт А. Гласко, Рэндольф Скотт, Майкл Бадалукко

Описание:Профессиональный убийца Леон, не знающий пощады и жалости, знакомится со своей очаровательной соседкой Матильдой, семью которой расстреливают полицейские, замешанные в торговле наркотиками. Благодаря этому знакомству он впервые испытывает чувство любви, но…

________

Видео: 1280 x 544 (2:35:1),23,976 кадр/сек, AVC (х264), High@L3.1, ~1880 Kbps, 0.113 bit/pixel
Аудио: 48 kHz, AC3 Dolby Digital, 3/2 (L,C,R,l,r) + LFE ch, ~384 kbps


Автор РИПа:ddimmon22
Общее
Уникальный идентификатор: 181406279304276935236161378664145229590 (0x8879941B46A56C1F9419CB557D441716)
Полное имя: I:\oktzbr rupu\Leon_[tfile.ru].mkv
Формат: Matroska
Версия формата: Version 2
Размер файла: 2,10 Гбайт
Продолжительность: 2 ч. 12 м.
Общий поток: 2265 Кбит/сек
Дата кодирования: UTC 2011-10-16 11:44:25
Программа кодирования: mkvmerge v4.9.1 ('Ich will') сборка от Aug 10 2011 09:31:20
Библиотека кодирования: libebml v1.2.1 + libmatroska v1.2.0

Видео
Идентификатор: 1
Формат: AVC
Формат/Информация: Advanced Video Codec
Профиль формата: High@L3.1
Параметр CABAC формата: Да
Параметр ReFrames формата: 4 кадра
Идентификатор кодека: V_MPEG4/ISO/AVC
Продолжительность: 2 ч. 12 м.
Битрейт: 1880 Кбит/сек
Ширина: 1280 пикс.
Высота: 544 пикс.
Соотношение сторон: 2,35:1
Частота кадров: 23,976 кадр/сек
Цветовое пространство: YUV
Подвыборка цветности: 4:2:0
Битовая глубина: 8 бит
Тип развёртки: Прогрессивная
Бит/(Пиксели*Кадры): 0.113
Размер потока: 1,70 Гбайт (81%)
Библиотека кодирования: x264 core 116 r2074 2641b9e
Настройки программы: cabac=1 / ref=3 / deblock=1:0:0 / analyse=0x3:0x113 / me=hex / subme=7 / psy=1 / psy_rd=1.00:0.00 / mixed_ref=1 / me_range=16 / chroma_me=1 / trellis=1 / 8x8dct=1 / cqm=0 / deadzone=21,11 / fast_pskip=1 / chroma_qp_offset=-2 / threads=6 / sliced_threads=0 / nr=0 / decimate=1 / interlaced=0 / bluray_compat=0 / constrained_intra=0 / bframes=3 / b_pyramid=2 / b_adapt=1 / b_bias=0 / direct=1 / weightb=1 / open_gop=0 / weightp=2 / keyint=250 / keyint_min=23 / scenecut=40 / intra_refresh=0 / rc_lookahead=40 / rc=2pass / mbtree=1 / bitrate=1880 / ratetol=1.0 / qcomp=0.60 / qpmin=0 / qpmax=69 / qpstep=4 / cplxblur=20.0 / qblur=0.5 / ip_ratio=1.40 / aq=1:1.00

Аудио
Идентификатор: 2
Формат: AC-3
Формат/Информация: Audio Coding 3
Расширение режима: CM (complete main)
Идентификатор кодека: A_AC3
Продолжительность: 2 ч. 12 м.
Вид битрейта: Постоянный
Битрейт: 384 Кбит/сек
Каналы: 6 каналов
Расположение каналов: Front: L C R, Side: L R, LFE
Частота: 48,0 КГц
Битовая глубина: 16 бит
Метод сжатия: С потерями
Размер потока: 365 Мбайт (17%)









Поделиться:




реклама партнёра


Вернуться к началу
 Профиль Отправить личное сообщение  
 
   Похожие торренты   Автор   Торрент   Размер 
В этой теме нет новых непрочитанных сообщений. Порт назначения / Daap hyut cam mui (Драма, криминал, детектив, 2015) HDRip от MegaPeer | Режиссерская версия | A

marya111

42 | 0

745.77 МБ

В этой теме нет новых непрочитанных сообщений. Инсайдеры / Nae-bu-ja-deul (У Мин-хо / Woo Min-ho) [2015г., Южная Корея, триллер, драма, криминал, WEB-DLRip] [Режиссерская версия] DVO

Alfredovich

23 | 7

2.1 ГБ

В этой теме нет новых непрочитанных сообщений. Порт назначения / Daap hyut cam mui (драма, криминал, детектив, 2015) BDRip 1080p | А | Режиссерская версия

marya111

0 | 0

11.5 ГБ

В этой теме нет новых непрочитанных сообщений. 37,2 по утрам / 37°2 le matin / Betty Blue (Жан-Жак Бенекс / Jean-Jacques Beineix) [1986г., Франция, драма, HDRip] [Режиссерская версия] VO

Alfredovich

8 | 3

2.18 ГБ

В этой теме нет новых непрочитанных сообщений. Подрывники / Blown Away [боевик, триллер, драма, криминал, 1994] HDRip, Mvo

salma3

10 | 2

1.46 ГБ

В этой теме нет новых непрочитанных сообщений. Скалолаз / Cliffhanger [боевик, триллер, приключения, 1993] DVD9, Dvo+Sub [Режиссерская версия]

salma3

13 | 7

7.06 ГБ

В этой теме нет новых непрочитанных сообщений. 3 дня на убийство / 3 Days to Kill (МакДжи) [2014, Боевик, триллер, драма, криминал, HDRip | Расширенная версия | Лицензия] Dub

Nickolas3435

1726 | 36

1.45 ГБ


Начать новую тему Ответить на тему  [ 1 сообщение ] 




Для Мосгорсуда, Роскомнадзора и рекламодателей:: mosgorsud-torrent[собачка]yandex.ru