Торрент файл
скачать торрент магнет ссылка Добавлен: 20 янв 2012, 22:19
Размер: 2.1 ГБ
Сидеров: 14
Личеров: 7
Автор

СообщениеДобавлено: 20 янв 2012, 22:19 

Не в сети
Супермодератор
Аватара пользователя
Дата регистрации:
11 апр 2010, 18:10
Спасибо: 5798 / 7
Сообщения: 56779
Отступление / Retreat

«A world away from everything you know


Перевод: Любительский (одноголосый) [Хихикающий доктор],субтитры: отсутствуют
Формат: HDRip-AVC, MKV, H.264, AC3
Страна: Великобритания
Жанр: триллер
Продолжительность: 01:29:00
Режиссер: Карл Тиббетс / Carl Tibbetts
Год выпуска: 2011

В ролях: Киллиан Мёрфи, Джейми Белл, Тэнди Ньютон Джимми Юилл

Описание:Журналистка Кейти архитектор Мартинпосле личной трагедии отправляются пожить на уединенный остров. И все было прекрасно пока туда не попал окровавленный, полуживой человек в военной форме . Таинственный незнакомец приходит в сознание и рассказывает им, что на материке свирепствует смертельный вирус, уже выкосивший в Европе миллионы людей и теперь им нельзя покидать этот остров...

________

Видео: 1280 x 544 (2:35:1),25.000 кадр/сек, AVC (х264), High@L4.0, ~2 965 Kbps,0.177 bit/pixel
Аудио: 48 kHz, AC3 Dolby Digital, 3/2 (L,C,R,l,r) + LFE ch, ~384 kbps


Автор РИПа:ddimmon22
Общее
Уникальный идентификатор: 192697622445483865688696904004918814325 (0x90F8364E053F661487E8DA7EAA1BA675)
Полное имя: K:\oktzbrmesz\retreat_[tfile.ru].mkv
Формат: Matroska
Версия формата: Version 2
Размер файла: 2,10 Гбайт
Продолжительность: 1 ч. 29 м.
Общий поток: 3350 Кбит/сек
Дата кодирования: UTC 2011-10-26 09:35:39
Программа кодирования: mkvmerge v4.9.1 ('Ich will') сборка от Aug 10 2011 09:31:20
Библиотека кодирования: libebml v1.2.1 + libmatroska v1.2.0

Видео
Идентификатор: 1
Формат: AVC
Формат/Информация: Advanced Video Codec
Профиль формата: High@L4.0
Параметр CABAC формата: Да
Параметр ReFrames формата: 8 кадров
Идентификатор кодека: V_MPEG4/ISO/AVC
Продолжительность: 1 ч. 29 м.
Битрейт: 2965 Кбит/сек
Ширина: 1280 пикселей
Высота: 544 пикселя
Соотношение сторон: 2,35:1
Частота кадров: 24,000 кадра/сек
Цветовое пространство: YUV
Субдискретизация насыщенности: 4:2:0
Битовая глубина: 8 бит
Тип развёртки: Прогрессивная
Бит/(Пиксели*Кадры): 0.177
Размер потока: 1,82 Гбайт (87%)
Библиотека кодирования: x264 core 116 r2074 2641b9e
Настройки программы: cabac=1 / ref=8 / deblock=1:-1:-1 / analyse=0x3:0x133 / me=umh / subme=7 / psy=1 / psy_rd=1.00:0.10 / mixed_ref=1 / me_range=16 / chroma_me=1 / trellis=2 / 8x8dct=1 / cqm=0 / deadzone=21,11 / fast_pskip=0 / chroma_qp_offset=-3 / threads=6 / sliced_threads=0 / nr=0 / decimate=1 / interlaced=0 / bluray_compat=0 / constrained_intra=0 / bframes=3 / b_pyramid=2 / b_adapt=2 / b_bias=0 / direct=3 / weightb=1 / open_gop=0 / weightp=2 / keyint=250 / keyint_min=23 / scenecut=40 / intra_refresh=0 / rc_lookahead=50 / rc=2pass / mbtree=1 / bitrate=2965 / ratetol=1.0 / qcomp=0.60 / qpmin=0 / qpmax=69 / qpstep=4 / cplxblur=20.0 / qblur=0.5 / ip_ratio=1.40 / aq=1:1.00

Аудио
Идентификатор: 2
Формат: AC-3
Формат/Информация: Audio Coding 3
Расширение режима: CM (complete main)
Идентификатор кодека: A_AC3
Продолжительность: 1 ч. 29 м.
Вид битрейта: Постоянный
Битрейт: 384 Кбит/сек
Каналы: 6 каналов
Расположение каналов: Front: L C R, Side: L R, LFE
Частота: 48,0 КГц
Битовая глубина: 16 бит
Метод сжатия: С потерями
Размер потока: 247 Мбайт (11%)












Поделиться:




реклама партнёра


Вернуться к началу
 Профиль Отправить личное сообщение  
 
   Похожие торренты   Автор   Торрент   Размер 
В этой теме нет новых непрочитанных сообщений. Тихий приют / Silent Retreat [ужасы, триллер, детектив, 2016] HDRip, Avo

salma3

0 | 1

1.45 ГБ

В этой теме нет новых непрочитанных сообщений. Отступление / Backtrack [Триллер, детектив, 2015] WEB-DLRip, dvo

Dracon

5070 | 217

1.45 ГБ

В этой теме нет новых непрочитанных сообщений. Cheaters Retreat # 2 / Пристанище Обманщиков #2 (Nica Noelle, Sweet Sinner) [2011 г., Feature, Couples, 540p, WEB-DL]

friizze

95 | 1275

1.37 ГБ

В этой теме нет новых непрочитанных сообщений. Объятия вампира / Embrace Of The Vampire (Карл Бессай) [Ужасы, 2013] HDRip, Mvo [iTunes]

Dracon

243 | 11

1.37 ГБ

В этой теме нет новых непрочитанных сообщений. David Carl Band - Can't Slow Down [1998, Melodic Rock,AOR, MP3]

PriZraK

0 | 1

124.65 МБ

В этой теме нет новых непрочитанных сообщений. 47 ронинов / 47 Ronin (Карл Ринш) [2013, фэнтези, боевик, приключения, ВDRip-AVC] [1080p] [Dub (Лицензия)]

Враг Нароода

2 | 2

7.4 ГБ

В этой теме нет новых непрочитанных сообщений. Объятия вампира / Embrace Of The Vampire (Карл Бессай) [Ужасы, 2013] BDRip 1080p, Mvo [iTunes Russia]

Dracon

12 | 12

6.8 ГБ


Начать новую тему Ответить на тему  [ 1 сообщение ] 




Для Мосгорсуда, Роскомнадзора и рекламодателей:: mosgorsud-torrent[собачка]yandex.ru