Торрент файл
скачать торрент магнет ссылка Добавлен: 20 янв 2012, 22:15
Размер: 2.1 ГБ
Сидеров: 42
Личеров: 5
Автор

СообщениеДобавлено: 20 янв 2012, 22:15 

Не в сети
Супермодератор
Аватара пользователя
Дата регистрации:
11 апр 2010, 18:10
Спасибо: 5799 / 7
Сообщения: 56779
Лица в толпе / Faces in the Crowd



Перевод: Профессиональный (двухголосый),субтитры: отсутствуют
Формат: HDRip-AVC, MKV, H.264, AC3
Страна: Канада, Франция
Жанр: триллер, драма
Продолжительность: 01:42:00
Режиссер: Жюльен Манья / Julien Magnat
Год выпуска: 2011

В ролях: Милла Йовович, Сара Уэйн Кэллис, Джулиан МакМэхон, Майкл Шэнкс, Адам Харингтон, Сандрин Холт, Валентина Варгас, Марианна Фэйтфулл, Энтони Лемке, Нельс Леннарсо.

Описание: Сюжет повествует о страшной трагедии, которая произошла в жизни молодой женщины. После нападения серийного убийцы она чудом осталась жива. Однако сложная травма головы сделала её фактически беспомощной. Она совсем не запоминает лица людей, и как только они исчезают из ее поля зрения, они стираются из ее памяти навсегда.

________

Видео: 1 248x 520 (2:40:1), 24,000 кадр/сек, AVC (х264), High@L3.1, ~ 2 550 Kbps,0.164 bit/pixel
Аудио: 48 kHz, AC3 Dolby Digital, 3/2 (L,C,R,l,r) + LFE ch, ~384 kbps


Автор РИПа:ANDREY22W22
Общее
Уникальный идентификатор: 197201556518935283786849331093243890359 (0x945BA3662F2F655A9CD60987A0670AB7)
Полное имя: E:\рипы\faces_in_the_crowd_[tfile.ru].mkv
Формат: Matroska
Версия формата: Version 2
Размер файла: 2,10 Гбайт
Продолжительность: 1 ч. 42 м.
Общий поток: 2934 Кбит/сек
Дата кодирования: UTC 2011-10-31 21:17:01
Программа кодирования: mkvmerge v4.9.1 ('Ich will') зібрано Aug 10 2011 09:31:20
Библиотека кодирования: libebml v1.2.1 + libmatroska v1.2.0

Видео
Идентификатор: 1
Формат: AVC
Формат/Информация: Advanced Video Codec
Профиль формата: High@L3.1
Параметр CABAC формата: Да
Параметр ReFrames формата: 4 кадра
Идентификатор кодека: V_MPEG4/ISO/AVC
Продолжительность: 1 ч. 42 м.
Битрейт: 2550 Кбит/сек
Ширина: 1248 пикс.
Высота: 520 пикс.
Соотношение сторон: 2,40:1
Частота кадров: 24,000 кадр/сек
Цветовое пространство: YUV
Подвыборка цветности: 4:2:0
Битовая глубина: 8 бит
Тип развёртки: Прогрессивная
Бит/(Пиксели*Кадры): 0.164
Размер потока: 1,78 Гбайт (85%)
Библиотека кодирования: x264 core 116 r2074 2641b9e
Настройки программы: cabac=1 / ref=3 / deblock=1:-1:-1 / analyse=0x3:0x113 / me=hex / subme=7 / psy=1 / psy_rd=1.00:0.10 / mixed_ref=1 / me_range=16 / chroma_me=1 / trellis=1 / 8x8dct=1 / cqm=0 / deadzone=21,11 / fast_pskip=1 / chroma_qp_offset=-3 / threads=12 / sliced_threads=0 / nr=0 / decimate=1 / interlaced=0 / bluray_compat=0 / constrained_intra=0 / bframes=3 / b_pyramid=2 / b_adapt=1 / b_bias=0 / direct=3 / weightb=1 / open_gop=0 / weightp=2 / keyint=250 / keyint_min=23 / scenecut=40 / intra_refresh=0 / rc_lookahead=40 / rc=2pass / mbtree=1 / bitrate=2550 / ratetol=1.0 / qcomp=0.60 / qpmin=0 / qpmax=69 / qpstep=4 / cplxblur=20.0 / qblur=0.5 / ip_ratio=1.40 / aq=1:1.00

Аудио
Идентификатор: 2
Формат: AC-3
Формат/Информация: Audio Coding 3
Расширение режима: CM (complete main)
Идентификатор кодека: A_AC3
Продолжительность: 1 ч. 42 м.
Вид битрейта: Постоянный
Битрейт: 384 Кбит/сек
Каналы: 6 каналов
Расположение каналов: Front: L C R, Side: L R, LFE
Частота: 48,0 КГц
Битовая глубина: 16 бит
Метод сжатия: С потерями
Размер потока: 282 Мбайт (13%)








Поделиться:




реклама партнёра


Вернуться к началу
 Профиль Отправить личное сообщение  
 
   Похожие торренты   Автор   Торрент   Размер 
В этой теме нет новых непрочитанных сообщений. Осведомитель / Gibraltar / The Informant (Жюльен Леклерк / Julien Leclercq) [2013г., Франция, криминал, драма, боевик, HDRip] MVO

Alfredovich

9 | 3

2.19 ГБ

В этой теме нет новых непрочитанных сообщений. Три лепестка розы / Антиамериканский пирог / Du poil sous les roses (Жан-Жюльен Шервье, Аньес Обадья / Jean-Julien Chervier, Agnès Obadia) [2000г., комедия, DVDRip] MVO

Alfredovich

75 | 4

1.37 ГБ

В этой теме нет новых непрочитанных сообщений. Beautiful New Faces 6 / Новые прекрасные лица 6 (2016) WEBRip

amadei

144 | 93

1.16 ГБ

В этой теме нет новых непрочитанных сообщений. Brand New Faces 43 / Совершенно новые лица 43 (B. Skow, Vivid) [2014 г., All Sex, DVDRip]

friizze

7 | 275

2.23 ГБ

В этой теме нет новых непрочитанных сообщений. Не смейтесь мне в лицо / Hide Your Smiling Faces (Дэниэл Кэрбон) [Драма, 2013] HDRip, avo

Dracon

106 | 10

1.44 ГБ

В этой теме нет новых непрочитанных сообщений. Вдали от обезумевшей толпы / Far from the Madding Crowd (Томас Винтерберг) [Драма, мелодрама, 2015] HDRip, Dub [iTunes]

Dracon

2579 | 85

1.45 ГБ

В этой теме нет новых непрочитанных сообщений. Своя тусовка / The In Crowd [Триллер, детектив, драма, 2000] DVDRip, Dub+Mvo

salma3

42 | 0

2.04 ГБ


Начать новую тему Ответить на тему  [ 1 сообщение ] 




Для Мосгорсуда, Роскомнадзора и рекламодателей:: mosgorsud-torrent[собачка]yandex.ru