Торрент файл
скачать торрент магнет ссылка Добавлен: 20 янв 2012, 22:12
Размер: 2.19 ГБ
Сидеров: 46
Личеров: 6
Автор

СообщениеДобавлено: 20 янв 2012, 22:12 

Не в сети
Супермодератор
Аватара пользователя
Дата регистрации:
11 апр 2010, 18:10
Спасибо: 5801 / 7
Сообщения: 56779
И пришел паук / Along Came a Spider


Перевод: Профессиональный (многоголосый, закадровый)
Субтитры: русские, английские
Формат: HDRip, MKV, H.264, AC3
Страна: США, Германия, Канада
Режиссер: Ли Тамахори
Жанр: триллер, криминал, детектив
Продолжительность: 01:42:58
Год выпуска: 2001

В ролях: Морган Фриман, Моника Поттер, Майкл Уинкотт, Дилан Бейкер, Мика Бурем, Антон Ельчин, Кимберли Хоторн, Джей О. Сэндерс, Билли Бёрк, Майкл Мориарти, Пенелопа Энн Миллер, Анна Мария Хорсфорд

Описание: Дочь известного сенатора похищена из закрытой привилегированной школы. Похититель не выдвигает никаких требований и безжалостно расправляется со всеми, кто пытается встать у него на пути. Единственный человек, которому маньяк позвонил сразу после похищения, был Алекс Кросс.
Опытный сыщик понимает, что убийца решил предпочесть выкупу страшную и непредсказуемую игру, на кону которой — жизнь маленькой девочки. У Кросса и сотрудницы службы безопасности Джизи Флэниген остается очень мало времени, чтобы спасти ребенка…




Видео: 1024x436 (2.35:1), 23.976 fps, AVC MPEG4 (x264), High@L4.1, ~1820 kbps avg, 0.17 bit/pixel
Аудио #1: русский 48 kHz, AC3, 6 ch, (Front: L C R, Side: L R, LFE), ~384 kbps avg [Профессиональный (многоголосый закадровый)]
Аудио #2: русский 48 kHz, AC3, 6 ch, (Front: L C R, Side: L R, LFE), ~448 kbps avg [Авторский одноголосый (Юрий Живов]
Аудио #3: английский 48 kHz, AC3, 6 ch, (Front: L C R, Side: L R, LFE), ~384 kbps avg [Оригинал]

Слоган: «The game is far from over.» / «Игра далека до завершения.»

Релиз группы: rip by mimigen


General
Unique ID: 177452607523137610992524931978478256059 (0x85802109AC28F9E5952C763E6A307FBB)
Complete name: J:\Along.came.a.spider.mkv
Format: Matroska
Format version: Version 2
File size: 2.19 GiB
Duration: 1h 43mn
Overall bit rate: 3 036 Kbps
Movie name: Along Came A Spider (2001) BDRemux AVC.AC3 tRuAVC
Encoded by: [tRuAVC]vladimiryakushin
Encoded date: UTC 2011-11-13 17:42:46
Writing application: mkvmerge v4.0.0 ('The Stars were mine') сборка от Jun6 2010 16:18:42
Writing library: libebml v1.0.0 + libmatroska v1.0.0
Cover: Cover Picture
TITLE: Along Came A Spider (2001)
DATE_RELEASED: 01th February 2011
COMMENT: BDRemux (Along Came A Spider 2001 1080p Blu-Ray ITA AVC True-HD 5.1)

Video
ID: 1
Format: AVC
Format/Info: Advanced Video Codec
Format profile: High@L4.1
Format settings, CABAC: Yes
Format settings, ReFrames: 10 frames
Codec ID: V_MPEG4/ISO/AVC
Duration: 1h 43mn
Bit rate: 1 820 Kbps
Width: 1 024 pixels
Height: 436 pixels
Display aspect ratio: 2.35:1
Frame rate: 23.976 fps
Color space: YUV
Chroma subsampling: 4:2:0
Bit depth: 8 bits
Scan type: Progressive
Bits/(Pixel*Frame): 0.170
Stream size: 1.27 GiB (58%)
Writing library: x264 core 116 r2074 2641b9e
Encoding settings: cabac=1 / ref=11 / deblock=1:-2:-2 / analyse=0x3:0x113 / me=esa / subme=9 / psy=1 / psy_rd=1.00:0.00 / mixed_ref=1 / me_range=24 / chroma_me=1 / trellis=2 / 8x8dct=1 / cqm=0 / deadzone=21,11 / fast_pskip=0 / chroma_qp_offset=-2 / threads=4 / sliced_threads=0 / slices=4 / nr=0 / decimate=0 / interlaced=0 / bluray_compat=0 / constrained_intra=0 / bframes=9 / b_pyramid=1 / b_adapt=2 / b_bias=0 / direct=3 / weightb=1 / open_gop=0 / weightp=0 / keyint=24 / keyint_min=2 / scenecut=40 / intra_refresh=0 / rc_lookahead=24 / rc=2pass / mbtree=1 / bitrate=1820 / ratetol=1.0 / qcomp=0.60 / qpmin=10 / qpmax=51 / qpstep=4 / cplxblur=20.0 / qblur=0.5 / ip_ratio=1.40 / aq=2:1.00
Language: English

Audio #1
ID: 2
Format: AC-3
Format/Info: Audio Coding 3
Mode extension: CM (complete main)
Codec ID: A_AC3
Duration: 1h 43mn
Bit rate mode: Constant
Bit rate: 384 Kbps
Channel(s): 6 channels
Channel positions: Front: L C R, Side: L R, LFE
Sampling rate: 48.0 KHz
Bit depth: 16 bits
Compression mode: Lossy
Stream size: 283 MiB (13%)
Title: Russian - MVO
Language: Russian

Audio #2
ID: 3
Format: AC-3
Format/Info: Audio Coding 3
Mode extension: CM (complete main)
Codec ID: A_AC3
Duration: 1h 43mn
Bit rate mode: Constant
Bit rate: 448 Kbps
Channel(s): 6 channels
Channel positions: Front: L C R, Side: L R, LFE
Sampling rate: 48.0 KHz
Bit depth: 16 bits
Compression mode: Lossy
Stream size: 330 MiB (15%)
Title: Russian - AVO [Y.Zhivov]
Language: Russian

Audio #3
ID: 4
Format: AC-3
Format/Info: Audio Coding 3
Mode extension: CM (complete main)
Codec ID: A_AC3
Duration: 1h 43mn
Bit rate mode: Constant
Bit rate: 384 Kbps
Channel(s): 6 channels
Channel positions: Front: L C R, Side: L R, LFE
Sampling rate: 48.0 KHz
Bit depth: 16 bits
Compression mode: Lossy
Stream size: 283 MiB (13%)
Language: English

Text #1
ID: 5
Format: UTF-8
Codec ID: S_TEXT/UTF8
Codec ID/Info: UTF-8 Plain Text
Title: Russian - [N.Gryzin]
Language: Russian

Text #2
ID: 6
Format: UTF-8
Codec ID: S_TEXT/UTF8
Codec ID/Info: UTF-8 Plain Text
Title: English
Language: English

Menu
00:00:00.000: en:Scene 01
00:11:53.754: en:Scene 02
00:21:11.019: en:Scene 03
00:30:15.230: en:Scene 04
00:37:49.016: en:Scene 05
00:42:09.652: en:Scene 06
00:50:02.916: en:Scene 07
00:53:53.897: en:Scene 08
01:01:13.961: en:Scene 09
01:11:41.213: en:Scene 10
01:18:07.099: en:Scene 11
01:20:32.702: en:Scene 12
01:21:24.212: en:Scene 13
01:22:54.427: en:Scene 14
01:26:28.182: en:Scene 15
01:36:02.131: en:Scene 16








Поделиться:




реклама партнёра


Вернуться к началу
 Профиль Отправить личное сообщение  
 
   Похожие торренты   Автор   Торрент   Размер 
В этой теме нет новых непрочитанных сообщений. И пришёл паук / Along Came A Spider [триллер, криминал, детектив, 2001] BDRip 720, Mvo

salma3

44 | 4

4.36 ГБ

В этой теме нет новых непрочитанных сообщений. Скала Малхолланд / Mulholland Falls (Ли Тамахори) [1995, триллер, драма, криминал, детектив, HDRip] mvo

Nickolas3435

49 | 5

1.45 ГБ

В этой теме нет новых непрочитанных сообщений. Новый Человек-паук: Высокое напряжение / The Amazing Spider-Man 2 [фэнтези, боевик, приключения, 2014] HDRip, Dub [iPad]

salma3

37 | 3

1.85 ГБ

В этой теме нет новых непрочитанных сообщений. Паук [01-08 из 08] (Евгений Звездаков) [Детектив, Криминал, Триллер, 2015] WEB-DL 720p

Dracon

2296 | 352

9.84 ГБ

В этой теме нет новых непрочитанных сообщений. Паук [01-08 из 08] (Евгений Звездаков) [Детектив, Криминал, Триллер, 2015] WEB-DL 1080p

Dracon

1450 | 255

14.49 ГБ

В этой теме нет новых непрочитанных сообщений. Паук [01-08 из 08] (Евгений Звездаков) [Детектив, Криминал, Триллер, 2015] WEB-DLRip

Dracon

12579 | 1588

5.45 ГБ

В этой теме нет новых непрочитанных сообщений. Паук [Серия 1-2 из 8] (Евгений Звездаков) [Детектив, Криминал, Триллер, 2015] SATRip

Dracon

55 | 5

1.37 ГБ


Начать новую тему Ответить на тему  [ 1 сообщение ] 




Для Мосгорсуда, Роскомнадзора и рекламодателей:: mosgorsud-torrent[собачка]yandex.ru