Торрент файл
скачать торрент магнет ссылка Добавлен: 20 янв 2012, 22:09
Размер: 2.19 ГБ
Сидеров: 6
Личеров: 6
Автор

СообщениеДобавлено: 20 янв 2012, 22:09 

Не в сети
Супермодератор
Аватара пользователя
Дата регистрации:
11 апр 2010, 18:10
Спасибо: 5799 / 7
Сообщения: 56779
Сальвадор / Salvador

Перевод: Профессиональный (многоголосый, закадровый), cубтитры: Русские, Английские (полные, отключаемые)
Формат: HDRip, MKV, H.264, AC3
Страна: США, Великобритания
Режиссер: Оливер Стоун
Жанр: драма, военный, триллер
Продолжительность: 02:02:35
Год выпуска: 1986
В ролях: Джеймс Вудс, Джеймс Белуши, Майкл Мерфи, Джон Сэвидж, Элпидия Каррильо, Тони Плана, Колби Честер, Синтия Гибб, Уилл МакМиллан, Валери Уайлдмен
Описание: Тропический рай, в котором доступны все удовольствия мира. Неистовство красок, фантастические женщины, море выпивки, любые наркотики-и все это совсем или практически бесплатно! Репортер Ричард Бойл знает Сальвадор именно таким, он провел здесь много незабываемых месяцев.
И когда, вслед за уходом жены, он вылетает с работы и в конце концов попадает за решетку, он уговаривает товарища по несчастью бежать именно сюда. В отличие от прошедшего все круги ада Ричарда, Доктор Рок-простой беззаботный искатель приключений. И умей он заглядывать в будущее или хотя бы в газеты-все могло сложиться иначе! Далекий земной рай, который так хорошо знал Ричард, успел стать ареной чудовищной, кровавой гражданской войны.
И как это было с ним во Вьетнаме, в Камбодже- в любом месте, где жизнь целой страны зависит от решений узкого круга недостижимо далеких от нее лиц, для Ричарда эта война становится больше, чем работой-жизнью.


Видео: 1280x696 (16:9), 24,000 fps, AVC (х264), High@L4.1 ~2200 kbps avg, 0.103 bit/pixel
Аудио: 48 kHz, AC-3, 6 ch, ~384.00 kbps avg


Автор РИПа:
Награды:
Оскар
Номинации:
1987
Лучший сценарий, Лучшая мужская роль

Общее
Уникальный идентификатор : 183934741451683208440851790890074600751 (0x8A608AEA4A6A165183ED8C1A4AAF752F)
Полное имя : f:\Downloads\salvador_[tfile.ru].mkv
Формат : Matroska
Версия формата : Version 2
Размер файла : 2,19 Гбайт
Продолжительность : 2 ч. 2 м.
Общий поток : 2558 Кбит/сек
Дата кодирования : UTC 2011-11-20 02:03:06
Программа кодирования : mkvmerge v4.6.0 ('Still Crazy After All These Years') сборка от Mar 10 2011 02:50:32
Библиотека кодирования : libebml v1.2.0 + libmatroska v1.1.0

Видео
Идентификатор : 1
Формат : AVC
Формат/Информация : Advanced Video Codec
Профиль формата : High@L4.1
Параметр CABAC формата : Да
Параметр ReFrames формата : 3 кадра
Режим смешивания : Header stripping
Идентификатор кодека : V_MPEG4/ISO/AVC
Продолжительность : 2 ч. 2 м.
Битрейт : 2200 Кбит/сек
Ширина : 1280 пикселей
Высота : 696 пикселей
Соотношение сторон : 16:9
Режим частоты кадров : Переменный
Частота кадров : 24,000 кадра/сек
Цветовое пространство : YUV
Субдискретизация насыщенности : 4:2:0
Битовая глубина : 8 бит
Тип развёртки : Прогрессивная
Бит/(Пиксели*Кадры) : 0.103
Размер потока : 1,82 Гбайт (83%)
Библиотека кодирования : x264 core 116 r2019M 9cc407d
Настройки программы : cabac=1 / ref=3 / deblock=1:-1:-1 / analyse=0x3:0x133 / me=hex / subme=7 / psy=1 / psy_rd=1.00:0.15 / mixed_ref=1 / me_range=16 / chroma_me=1 / trellis=1 / 8x8dct=1 / cqm=0 / deadzone=21,11 / fast_pskip=1 / chroma_qp_offset=-3 / threads=8 / sliced_threads=0 / nr=0 / decimate=1 / interlaced=0 / bluray_compat=0 / constrained_intra=0 / bframes=3 / b_pyramid=1 / b_adapt=2 / b_bias=0 / direct=3 / weightb=1 / open_gop=0 / weightp=2 / keyint=240 / keyint_min=24 / scenecut=40 / intra_refresh=0 / rc_lookahead=40 / rc=abr / mbtree=1 / bitrate=2200 / ratetol=1.0 / qcomp=0.60 / qpmin=10 / qpmax=51 / qpstep=4 / vbv_maxrate=31250 / vbv_bufsize=31250 / nal_hrd=none / ip_ratio=1.40 / aq=1:1.00
Язык : English
Default : Да
Forced : Нет

Аудио
Идентификатор : 2
Формат : AC-3
Формат/Информация : Audio Coding 3
Расширение режима : CM (complete main)
Режим смешивания : Header stripping
Идентификатор кодека : A_AC3
Продолжительность : 2 ч. 2 м.
Вид битрейта : Постоянный
Битрейт : 384 Кбит/сек
Каналы : 6 каналов
Расположение каналов : Front: L C R, Side: L R, LFE
Частота : 48,0 КГц
Битовая глубина : 16 бит
Метод сжатия : С потерями
Размер потока : 337 Мбайт (15%)
Заголовок : MVO
Язык : Russian
Default : Да
Forced : Нет

Текст #1
Идентификатор : 3
Формат : UTF-8
Идентификатор кодека : S_TEXT/UTF8
Идентификатор кодека/Информация : UTF-8 Plain Text
Язык : Russian
Default : Да
Forced : Нет

Текст #2
Идентификатор : 4
Формат : UTF-8
Идентификатор кодека : S_TEXT/UTF8
Идентификатор кодека/Информация : UTF-8 Plain Text
Язык : English
Default : Нет
Forced : Нет

Меню
00:00:00.000 : en:00:00:00.000
00:02:05.292 : en:00:02:05.292
00:08:49.500 : en:00:08:49.500
00:14:25.125 : en:00:14:25.125
00:20:08.458 : en:00:20:08.458
00:24:00.958 : en:00:24:00.958
00:27:31.083 : en:00:27:31.083
00:33:39.333 : en:00:33:39.333
00:40:21.500 : en:00:40:21.500
00:47:47.792 : en:00:47:47.792
00:56:09.000 : en:00:56:09.000
01:04:42.083 : en:01:04:42.083
01:09:29.208 : en:01:09:29.208
01:18:57.458 : en:01:18:57.458
01:25:04.000 : en:01:25:04.000
01:33:33.417 : en:01:33:33.417
01:41:10.125 : en:01:41:10.125
01:45:54.500 : en:01:45:54.500
01:51:41.625 : en:01:51:41.625
01:58:28.958 : en:01:58:28.958












Поделиться:




реклама партнёра


Вернуться к началу
 Профиль Отправить личное сообщение  
 
   Похожие торренты   Автор   Торрент   Размер 
В этой теме нет новых непрочитанных сообщений. Сальвадор / Salvador [Триллер, драма, военный, 1986] BDRip 1080p, Mvo

salma3

25 | 9

17.76 ГБ

В этой теме нет новых непрочитанных сообщений. Нерассказанная история США / The Untold History of the United States [Episode 8 of 10] (Оливер Стоун) [Документальный, история, 2014] SATRip, Mvo

Dracon

5 | 3

830.64 МБ

В этой теме нет новых непрочитанных сообщений. Нерассказанная история США / The Untold History of the United States [Episode 9 of 10] (Оливер Стоун) [Документальный, история, 2014] SATRip, Mvo

Dracon

1 | 3

836.51 МБ

В этой теме нет новых непрочитанных сообщений. Нерассказанная история США / The Untold History of the United States [Episode 10 of 10] (Оливер Стоун) [Документальный, история, 2014] SATRip, Mvo

Dracon

3 | 3

832.55 МБ

В этой теме нет новых непрочитанных сообщений. Кристи / Kristy (Оливер Блэкберн) [ужасы, триллер, 2014] HDRip avo

Dracon

4 | 3

1.44 ГБ

В этой теме нет новых непрочитанных сообщений. Карающая сила / Avenging Force [Боевик, Триллер, Драма, 1986] HDRip, Mvo+Avo

salma3

74 | 7

1.46 ГБ

В этой теме нет новых непрочитанных сообщений. Герои не плачут / Ying xiong wu lei [боевик, драма, военный, 1986] DVDRip, Avo

salma3

74 | 62

1.37 ГБ


Начать новую тему Ответить на тему  [ 1 сообщение ] 




Для Мосгорсуда, Роскомнадзора и рекламодателей:: mosgorsud-torrent[собачка]yandex.ru