Торрент файл
скачать торрент магнет ссылка Добавлен: 20 янв 2012, 22:07
Размер: 2.09 ГБ
Сидеров: 16
Личеров: 6
Автор

СообщениеДобавлено: 20 янв 2012, 22:07 

Не в сети
Супермодератор
Аватара пользователя
Дата регистрации:
11 апр 2010, 18:10
Спасибо: 5960 / 7
Сообщения: 56765
Настоящая любовь / True Romance

Перевод: Профессиональный (многоголосый, закадровый, Twister), cубтитры: Русские, Английские (полные, отключаемые)
Формат: HDRip, MKV, H.264, AC3
Страна: США
Режиссер: Тони Скотт
Жанр: триллер, мелодрама, криминал
Продолжительность: 02:01:01
Год выпуска: 1993
В ролях: Кристиан Слэйтер, Патриция Аркетт, Майкл Рапапорт, Вэл Килмер, Бронсон Пинчот, Деннис Хоппер, Гари Олдман, Брэд Питт, Том Сайзмор, Кристофер Уокен
Описание: Кларенс Уорли и Алабама Уитмэн познакомились и провели вместе ночь. Алабама призналась, что она делает первые шаги на трудном поприще «call-girl», то есть «девушки по вызову». Кларенс Уорли не был суперменом, однако, «навестив» сутенера Алабамы, оставил после себя два трупа-сутенера и его телохранителя…

Видео: 1280x534 (2,40:1), 23,976 fps, AVC (х264), High@L4.1 ~2100 kbps avg, 0.128 bit/pixel
Аудио: 48 kHz, AC-3, 6 ch, ~384.00 kbps avg


Автор РИПа:
Награды:
Премия канала «MTV», 1994 год
Номинации (1):
Лучший поцелуй (Патриция Аркетт, Кристиан Слэйтер)
Сатурн, 1994 год
Номинации (3):
Лучший актер (Кристиан Слэйтер)
Лучшая актриса (Патриция Аркетт)
Лучший сценарий

Общее
Уникальный идентификатор : 178840950437656912951922525459060806378 (0x868B83A0D86AB545A4D97C6E720ED2EA)
Полное имя : f:\Релизы\true_romance_[tfile.ru].mkv
Формат : Matroska
Версия формата : Version 2
Размер файла : 2,09 Гбайт
Продолжительность : 2 ч. 1 м.
Общий поток : 2472 Кбит/сек
Дата кодирования : UTC 2011-11-24 02:19:46
Программа кодирования : mkvmerge v4.6.0 ('Still Crazy After All These Years') сборка от Mar 10 2011 02:50:32
Библиотека кодирования : libebml v1.2.0 + libmatroska v1.1.0

Видео
Идентификатор : 1
Формат : AVC
Формат/Информация : Advanced Video Codec
Профиль формата : High@L4.1
Параметр CABAC формата : Да
Параметр ReFrames формата : 3 кадра
Режим смешивания : Header stripping
Идентификатор кодека : V_MPEG4/ISO/AVC
Продолжительность : 2 ч. 1 м.
Битрейт : 2100 Кбит/сек
Ширина : 1280 пикселей
Высота : 534 пикселя
Соотношение сторон : 2,40:1
Режим частоты кадров : Переменный
Частота кадров : 23,976 кадра/сек
Цветовое пространство : YUV
Субдискретизация насыщенности : 4:2:0
Битовая глубина : 8 бит
Тип развёртки : Прогрессивная
Бит/(Пиксели*Кадры) : 0.128
Размер потока : 1,72 Гбайт (82%)
Библиотека кодирования : x264 core 116 r2019M 9cc407d
Настройки программы : cabac=1 / ref=3 / deblock=1:-1:-1 / analyse=0x3:0x133 / me=hex / subme=7 / psy=1 / psy_rd=1.00:0.15 / mixed_ref=1 / me_range=16 / chroma_me=1 / trellis=1 / 8x8dct=1 / cqm=0 / deadzone=21,11 / fast_pskip=1 / chroma_qp_offset=-3 / threads=8 / sliced_threads=0 / nr=0 / decimate=1 / interlaced=0 / bluray_compat=0 / constrained_intra=0 / bframes=3 / b_pyramid=1 / b_adapt=2 / b_bias=0 / direct=3 / weightb=1 / open_gop=0 / weightp=2 / keyint=230 / keyint_min=23 / scenecut=40 / intra_refresh=0 / rc_lookahead=40 / rc=abr / mbtree=1 / bitrate=2100 / ratetol=1.0 / qcomp=0.60 / qpmin=10 / qpmax=51 / qpstep=4 / vbv_maxrate=31250 / vbv_bufsize=31250 / nal_hrd=none / ip_ratio=1.40 / aq=1:1.00
Язык : English
Default : Да
Forced : Нет

Аудио
Идентификатор : 2
Формат : AC-3
Формат/Информация : Audio Coding 3
Расширение режима : CM (complete main)
Режим смешивания : Header stripping
Идентификатор кодека : A_AC3
Продолжительность : 2 ч. 1 м.
Вид битрейта : Постоянный
Битрейт : 384 Кбит/сек
Каналы : 6 каналов
Расположение каналов : Front: L C R, Side: L R, LFE
Частота : 48,0 КГц
Битовая глубина : 16 бит
Метод сжатия : С потерями
Размер потока : 332 Мбайт (16%)
Заголовок : MVO
Язык : Russian
Default : Да
Forced : Нет

Текст #1
Идентификатор : 3
Формат : UTF-8
Идентификатор кодека : S_TEXT/UTF8
Идентификатор кодека/Информация : UTF-8 Plain Text
Язык : Russian
Default : Да
Forced : Нет

Текст #2
Идентификатор : 4
Формат : UTF-8
Идентификатор кодека : S_TEXT/UTF8
Идентификатор кодека/Информация : UTF-8 Plain Text
Язык : English
Default : Нет
Forced : Нет










Поделиться:




реклама партнёра


Вернуться к началу
 Профиль Отправить личное сообщение  
 
   Похожие торренты   Автор   Торрент   Размер 
В этой теме нет новых непрочитанных сообщений. Настоящая любовь / True Romance [триллер, драма, криминал, 1993] BDRemux 1080p, Mvo+Dvo+Avo

salma3

9 | 10

36.61 ГБ

В этой теме нет новых непрочитанных сообщений. Настоящая кровь / True Blood [S07] [фэнтези, триллер, драма, мелодрама, детектив, 2014] BDRip 1080p, Mvo

salma3

13 | 33

45.81 ГБ

В этой теме нет новых непрочитанных сообщений. Настоящая МакКой / The Real McCoy [Боевик, триллер, драма, криминал, 1993] DVDRip, Avo

salma3

28 | 2

1.46 ГБ

В этой теме нет новых непрочитанных сообщений. Настоящая кровь / True Blood [S01-07] [Драма, ужасы, фантастика, 2008-2014] HDRip, Mvo [FoxLife+Amedia]

salma3

5 | 20

76.63 ГБ

В этой теме нет новых непрочитанных сообщений. Настоящая женщина / True Women [драма, мелодрама, вестерн, военный, биография, история, 1997] DVDRip, Mvo

salma3

31 | 5

1.37 ГБ

В этой теме нет новых непрочитанных сообщений. Настоящая кровь / True Blood / 1-6 сезоны 1-70 серии из 70 [ужасы, фэнтези, мелодрама, 2008-2013] WEB-DL 720p, Mvo [Fox Life, Novamedia]

salma3

3 | 15

78.87 ГБ

В этой теме нет новых непрочитанных сообщений. Любовь и сигареты / Romance & Cigarettes [Мюзикл, мелодрама, комедия, 2005] HDTV 720p, Dub+Sub

salma3

48 | 18

4.71 ГБ


Начать новую тему Ответить на тему  [ 1 сообщение ] 




Для Мосгорсуда, Роскомнадзора и рекламодателей:: mosgorsud-torrent[собачка]yandex.ru