Торрент файл
скачать торрент магнет ссылка Добавлен: 20 янв 2012, 22:07
Размер: 2.17 ГБ
Сидеров: 21
Личеров: 8
Автор

СообщениеДобавлено: 20 янв 2012, 22:07 

Не в сети
Супермодератор
Аватара пользователя
Дата регистрации:
11 апр 2010, 18:10
Спасибо: 5963 / 7
Сообщения: 56762
[b]Багровые реки / Les rivieres pourpres[/b]


Перевод: Профессиональный (полное дублирование)
Субтитры: отсутствуют
Формат: HDRip-AVC, MKV, H.264, AC3

Страна:Франция

Режиссер: Матье Кассовиц
Жанр: триллер, криминал, мистика, детектив
Продолжительность: 01:45:47
Год выпуска: 2000

В ролях: Жан Рено, Венсан Кассель, Надя Фарес, Доминик Санда, Карим Бельхадра, Жан-Пьер Кассель, Дидье Фламан, Франсуа Леванталь, Франсин Берже, Филипп Наон.

Описание: В престижном колледже в Альпах совершено зверское убийство, которое расследует опытный комиссар полиции Пьер Ньеманс. Тем временем в другом местечке происходит еще одно, весьма странное преступление — кто-то раскапывает и оскверняет могилу 10-летней девочки.

Это дело ведет молодой детектив Макс Керкерьян. Кажется, между данными событиями нет связи. Но она существует! И когда оба полицейских обнаруживают ее, доселе виденные ими заурядные злодеяния постепенно меркнут по сравнению с тем сердцем тьмы, куда приведут их поиски правды. Смертельно опасной правды…




Видео: 1024x432 (2.35:1), 23.976 fps, AVC (х264) High@L4.1, ~2172 kbps avg, 0.205 bit/pixel
Аудио #1: русский48 kHz, AC3 Dolby Digital, 3/2 (L,C,R,l,r) + LFE ch, ~384 kbps avg [Профессиональный (полное дублирование)]
Аудио #2: русский48 kHz, AC3 Dolby Digital, 3/2 (L,C,R,l,r) + LFE ch, ~384 kbps avg [Авторский (А.Гаврилов)]

Релиз группы

Рип от: __


Общее
Уникальный идентификатор: 194394918448762570782905329242528444720 (0x923F197567DB48A086AB96EDFF667130)
Полное имя: D:\Temp\Багровые реки\Les Rivieres Pourpres\Les.Rivieres.Pourpres.2000.D.HDRip.mkv
Формат: Matroska
Размер файла: 2,17 Гбайт
Продолжительность: 1 ч. 46 м.
Общий поток: 2924 Кбит/сек
Название фильма: Les.Rivieres.Pourpres.2000.D.HDRip.Riper.S.I.D
Дата кодирования: UTC 2011-11-25 03:59:18
Программа кодирования: mkvmerge v2.9.0 ('Moanin'') built on May 22 2009 17:46:31
Библиотека кодирования: libebml v0.7.7 + libmatroska v0.8.1

Видео
Идентификатор: 1
Формат: AVC
Формат/Информация: Advanced Video Codec
Профиль формата: High@L4.1
Параметр CABAC формата: Да
Параметр ReFrames формата: 8 кадров
Идентификатор кодека: V_MPEG4/ISO/AVC
Продолжительность: 1 ч. 46 м.
Битрейт: 2172 Кбит/сек
Ширина: 1024 пикс.
Высота: 432 пикс.
Соотношение сторон: 2,35:1
Частота кадров: 23,976 кадр/сек
Цветовое пространство: YUV
Подвыборка цветности: 4:2:0
Битовая глубина: 8 бит
Тип развёртки: Прогрессивная
Бит/(Пиксели*Кадры): 0.205
Размер потока: 1,56 Гбайт (72%)
Библиотека кодирования: x264 core 118 r2085 8a62835
Настройки программы: cabac=1 / ref=8 / deblock=1:0:0 / analyse=0x3:0x111 / me=umh / subme=0 / psy=1 / psy_rd=1.00:0.10 / mixed_ref=1 / me_range=16 / chroma_me=1 / trellis=2 / 8x8dct=1 / cqm=0 / deadzone=21,11 / fast_pskip=0 / chroma_qp_offset=-1 / threads=3 / sliced_threads=0 / nr=0 / decimate=1 / interlaced=0 / bluray_compat=0 / constrained_intra=0 / bframes=8 / b_pyramid=2 / b_adapt=2 / b_bias=0 / direct=1 / weightb=1 / open_gop=0 / weightp=2 / keyint=250 / keyint_min=23 / scenecut=40 / intra_refresh=0 / rc_lookahead=40 / rc=abr / mbtree=1 / bitrate=2172 / ratetol=1.0 / qcomp=0.60 / qpmin=0 / qpmax=69 / qpstep=4 / ip_ratio=1.40 / aq=1:1.00
Язык: French

Аудио #1
Идентификатор: 2
Формат: AC-3
Формат/Информация: Audio Coding 3
Расширение режима: CM (complete main)
Идентификатор кодека: A_AC3
Продолжительность: 1 ч. 46 м.
Вид битрейта: Постоянный
Битрейт: 384 Кбит/сек
Каналы: 6 каналов
Расположение каналов: Front: L C R, Side: L R, LFE
Частота: 48,0 КГц
Битовая глубина: 16 бит
Метод сжатия: С потерями
Размер потока: 292 Мбайт (13%)
Заголовок: Дубляж
Язык: Russian

Аудио #2
Идентификатор: 3
Формат: AC-3
Формат/Информация: Audio Coding 3
Расширение режима: CM (complete main)
Идентификатор кодека: A_AC3
Продолжительность: 1 ч. 46 м.
Вид битрейта: Постоянный
Битрейт: 384 Кбит/сек
Каналы: 6 каналов
Расположение каналов: Front: L C R, Side: L R, LFE
Частота: 48,0 КГц
Битовая глубина: 16 бит
Метод сжатия: С потерями
Размер потока: 292 Мбайт (13%)
Заголовок: Гаврилов
Язык: Russian








Поделиться:




реклама партнёра


Вернуться к началу
 Профиль Отправить личное сообщение  
 
   Похожие торренты   Автор   Торрент   Размер 
В этой теме нет новых непрочитанных сообщений. Город удачи / Luckytown [триллер, драма, криминал, детектив, 2000] DVDRip, Mvo

salma3

24 | 9

1.46 ГБ

В этой теме нет новых непрочитанных сообщений. Двойная жизнь / Second Skin [триллер, детектив, драма, криминал, 2000] DVDRip-AVC, Mvo+Avo+Sub

salma3

50 | 11

2.17 ГБ

В этой теме нет новых непрочитанных сообщений. Парни из Эссекса / Essex Boys [триллер, криминал, 2000] HDRip, Mvo

salma3

73 | 13

1.46 ГБ

В этой теме нет новых непрочитанных сообщений. Дракула 2000 / Dracula 2000 [ужасы, мистика, 2000] BDRemux 1080p, Dub

salma3

27 | 18

11.55 ГБ

В этой теме нет новых непрочитанных сообщений. Спасибо за шоколад / Merci pour le chocolat [триллер, драма, криминал, детектив, 2000] DVDRip, Mvo

salma3

14 | 7

1.37 ГБ

В этой теме нет новых непрочитанных сообщений. Шоссе в никуда / Lost Highway [триллер, мистика, драма, детектив, 1997] HDRip, Mvo [Киномания]

salma3

81 | 7

1.46 ГБ

В этой теме нет новых непрочитанных сообщений. Дракула 2000 / Dracula 2000 [Ужасы, мистика, 2000] BDRip-AVC, Dub

salma3

112 | 26

745.63 МБ


Начать новую тему Ответить на тему  [ 1 сообщение ] 




Для Мосгорсуда, Роскомнадзора и рекламодателей:: mosgorsud-torrent[собачка]yandex.ru