Торрент файл
скачать торрент магнет ссылка Добавлен: 20 янв 2012, 22:06
Размер: 2.1 ГБ
Сидеров: 18
Личеров: 12
Автор

СообщениеДобавлено: 20 янв 2012, 22:06 

Не в сети
Супермодератор
Аватара пользователя
Дата регистрации:
11 апр 2010, 18:10
Спасибо: 5803 / 7
Сообщения: 56779
Не пойман - не вор / Inside Man


Перевод: Профессиональный (полное дублирование), cубтитры: отсутствуют
Формат: HDRip-AVC, MKV, H.264, AC3
Страна: США
Режиссер: Спайк Ли
Жанр: триллер, драма, криминал
Продолжительность: 02:08:36
Год выпуска: 2006

В ролях: Дензел Вашингтон, Клайв Оуэн, Джоди Фостер, Кристофер Пламмер, Уиллем Дафо, Чиветель Эджиофор, Карлос Андрес Гомез, Ким Директор, Джеймс Рэнсон, Берни Рейчел, Питер Герети, Виктор Количчио, Кассандра Фриман, Питер Фречетт, Джерри Вичи, Варис Ахлувалиа, Рафаэль Осорио, Родни Джексон, Родни «Медведь» Джексон, Эшли Эткинсон, Дэвид Браун

Описание: История крутого полицейского, детектива Фрезьера, который сталкивается «на узкой дорожке» с хитрым грабителем банков Долтоном. Их противостояние выливается в напряженную драму с захватом заложников.
По мере того, как развивается эта игра в «кошки-мышки», на горизонте появляется еще одна загадочная фигура - брокер Мадалина, роль которой в разворачивающихся событиях остается до поры до времени совершенно непонятной. Мадалина вносит еще больше хаоса и нестабильности в и без того чрезвычайно хрупкую ситуацию...




Видео: 960 x 408 (2:35:1), 23.976 fps, AVC (х264) High@L4.1, ~ 1956 Kbps, 0.208 bit/pixel
Аудио: 48 kHz, AC3 Dolby Digital, 3/2 (L,C,R,l,r) + LFE ch, ~384 kbps avg


Рип: jeenart

General
Unique ID: 185439259545759980586614435181596013022 (0x8B824D626169A0128F7EB52736F071DE)
Complete name: F:\Мои релизы\Все релизы 10\ne_poiman_ne_vor_[tfile.ru].mkv
Format: Matroska
File size: 2.10 GiB
Duration: 2h 8mn
Overall bit rate: 2 341 Kbps
Encoded date: UTC 2011-11-29 19:12:45
Writing application: mkvmerge v4.6.0 ('Still Crazy After All These Years') сборка от Apr1 2011 21:01:49
Writing library: libebml v1.2.0 + libmatroska v1.1.0

Video
ID: 1
Format: AVC
Format/Info: Advanced Video Codec
Format profile: High@L4.1
Format settings, CABAC: Yes
Format settings, ReFrames: 4 frames
Codec ID: V_MPEG4/ISO/AVC
Duration: 2h 8mn
Bit rate: 1 956 Kbps
Width: 960 pixels
Height: 408 pixels
Display aspect ratio: 2.35:1
Frame rate: 23.976 fps
Color space: YUV
Chroma subsampling: 4:2:0
Bit depth: 8 bits
Scan type: Progressive
Bits/(Pixel*Frame): 0.208
Stream size: 1.72 GiB (82%)
Writing library: x264 core 115 r1937 aa21558
Encoding settings: cabac=1 / ref=3 / deblock=1:-1:-1 / analyse=0x3:0x113 / me=hex / subme=7 / psy=1 / psy_rd=1.00:0.10 / mixed_ref=1 / me_range=16 / chroma_me=1 / trellis=1 / 8x8dct=1 / cqm=0 / deadzone=21,11 / fast_pskip=1 / chroma_qp_offset=-3 / threads=6 / sliced_threads=0 / nr=0 / decimate=1 / interlaced=0 / bluray_compat=0 / constrained_intra=0 / bframes=3 / b_pyramid=2 / b_adapt=1 / b_bias=0 / direct=3 / weightb=1 / open_gop=0 / weightp=2 / keyint=250 / keyint_min=23 / scenecut=40 / intra_refresh=0 / rc_lookahead=40 / rc=2pass / mbtree=1 / bitrate=1956 / ratetol=1.0 / qcomp=0.60 / qpmin=0 / qpmax=69 / qpstep=4 / cplxblur=20.0 / qblur=0.5 / ip_ratio=1.40 / aq=1:1.00

Audio
ID: 2
Format: AC-3
Format/Info: Audio Coding 3
Mode extension: CM (complete main)
Codec ID: A_AC3
Duration: 2h 8mn
Bit rate mode: Constant
Bit rate: 384 Kbps
Channel(s): 6 channels
Channel positions: Front: L C R, Side: L R, LFE
Sampling rate: 48.0 KHz
Bit depth: 16 bits
Compression mode: Lossy
Stream size: 353 MiB (16%)
















Поделиться:




реклама партнёра


Вернуться к началу
 Профиль Отправить личное сообщение  
 
   Похожие торренты   Автор   Торрент   Размер 
В этой теме нет новых непрочитанных сообщений. The kooks - Inside in/Inside out [2006, Indy, Brit-pop, MP3]

PriZraK

0 | 1

67.07 МБ

В этой теме нет новых непрочитанных сообщений. Чирак / Chi-Raq (Спайк Ли) [Драма, 2015] HDRip, dvo

Dracon

31 | 2

2.05 ГБ

В этой теме нет новых непрочитанных сообщений. Чирак / Chi-Raq (Спайк Ли) [Драма, 2015] HDRip, dvo

Dracon

79 | 6

1.37 ГБ

В этой теме нет новых непрочитанных сообщений. Убийца внутри меня / The Killer Inside Me [Триллер, драма, вестерн, криминал, 2010] ВDRip 1080р, Dub+Sub

salma3

29 | 7

9.01 ГБ

В этой теме нет новых непрочитанных сообщений. Толкачи / Clockers (Спайк Ли / Spike Lee) [1995г., драма, криминал, BDRip] MVO

Alfredovich

160 | 46

2.18 ГБ

В этой теме нет новых непрочитанных сообщений. Одинокие сердца / Lonely Hearts [триллер, мелодрама, драма, криминал, 2006] HDRip, Dvo

salma3

134 | 9

1.45 ГБ

В этой теме нет новых непрочитанных сообщений. Внутри / Inside [Криминал, драма, 1996] VHSRip, Avo

salma3

5 | 2

1.04 ГБ


Начать новую тему Ответить на тему  [ 1 сообщение ] 




Для Мосгорсуда, Роскомнадзора и рекламодателей:: mosgorsud-torrent[собачка]yandex.ru