Торрент файл
скачать торрент магнет ссылка Добавлен: 20 янв 2012, 22:05
Размер: 1.48 ГБ
Сидеров: 5
Личеров: 4
Автор

СообщениеДобавлено: 20 янв 2012, 22:05 

Не в сети
Супермодератор
Аватара пользователя
Дата регистрации:
11 апр 2010, 18:10
Спасибо: 5799 / 7
Сообщения: 56779
[b]Стражи порядка / Gardiens de l'ordre[/b]


Перевод: Профессиональный (многоголосый, закадровый)
Субтитры: отсутствуют
Формат: HDRip-AVC, MKV, H.264, AC3

Страна: Франция

Режиссер: Николас Бухриф
Жанр: триллер, драма, криминал
Продолжительность: 01:45:05
Год выпуска: 2010

В ролях: Сесиль де Франс, Фред Тесто, Жюльен Бойсселье, Николя Марье, Стефан Войтович, Нану Гарсия, Стефан Жобер, Жан-Мишель Нуари, Жилль Гастон-Дрейфус, Фуед Насса.

Описание: Саймон и Джулия — два офицера полиции, которых недавно обвинили в близких отношениях на рабочем месте. Их несправедливо обвиняют в убийстве человека, который был их коллегой по работе. Чтобы оправдать себя они решают накрыть банду наркодиллеров.



Видео: 1024x432(2.35:1), 23.976 fps, AVC MPEG-4 High@L4.1, ~1650 kbps avg, 0.156 bit/pixel
Аудио: 48 kHz, AC3 Dolby Digital, 3/2 (L,C,R,l,r) + LFE ch, ~384 kbps avg

Релиз группы

Рип от: __


Общее
Уникальный идентификатор: 213055123199353807465723291796739463875 (0xA048EC95959242869AD8C72885A01AC3)
Полное имя: D:\Мои рипы\Strazhi.porjadka.2010.P.HDRip.mkv
Формат: Matroska
Размер файла: 1,48 Гбайт
Продолжительность: 1 ч. 45 м.
Общий поток: 2017 Кбит/сек
Название фильма: Strazhi.porjadka.S.I.D
Дата кодирования: UTC 2011-12-02 18:37:21
Программа кодирования: mkvmerge v2.9.0 ('Moanin'') built on May 22 2009 17:46:31
Библиотека кодирования: libebml v0.7.7 + libmatroska v0.8.1

Видео
Идентификатор: 1
Формат: AVC
Формат/Информация: Advanced Video Codec
Профиль формата: High@L4.1
Параметр CABAC формата: Да
Параметр ReFrames формата: 8 кадры
Идентификатор кодека: V_MPEG4/ISO/AVC
Продолжительность: 1 ч. 45 м.
Битрейт: 1650 Кбит/сек
Ширина: 1024 пикс.
Высота: 432 пикс.
Соотношение сторон: 2,35:1
Частота кадров: 23,976 кадр/сек
Цветовое пространство: YUV
Подвыборка цветности: 4:2:0
Битовая глубина: 8 бит
Тип развёртки: Прогрессивная
Бит/(Пиксели*Кадры): 0.156
Размер потока: 1,17 Гбайт (79%)
Библиотека кодирования: x264 core 119 r2106 07efeb4
Настройки программы: cabac=1 / ref=8 / deblock=1:-1:-1 / analyse=0x3:0x111 / me=umh / subme=0 / psy=1 / psy_rd=1.00:0.10 / mixed_ref=1 / me_range=16 / chroma_me=1 / trellis=2 / 8x8dct=1 / cqm=0 / deadzone=21,11 / fast_pskip=0 / chroma_qp_offset=-1 / threads=6 / sliced_threads=0 / nr=0 / decimate=1 / interlaced=0 / bluray_compat=0 / constrained_intra=0 / bframes=8 / b_pyramid=2 / b_adapt=2 / b_bias=0 / direct=1 / weightb=1 / open_gop=0 / weightp=2 / keyint=250 / keyint_min=23 / scenecut=40 / intra_refresh=0 / rc_lookahead=50 / rc=abr / mbtree=1 / bitrate=1650 / ratetol=1.0 / qcomp=0.60 / qpmin=0 / qpmax=69 / qpstep=4 / ip_ratio=1.40 / aq=1:1.00
Язык: English

Аудио
Идентификатор: 2
Формат: AC-3
Формат/Информация: Audio Coding 3
Расширение режима: CM (complete main)
Идентификатор кодека: A_AC3
Продолжительность: 1 ч. 45 м.
Вид битрейта: Постоянный
Битрейт: 384 Кбит/сек
Канал(ы): 6 канала(ов)
Расположение каналов: Front: L C R, Side: L R, LFE
Частота: 48,0 КГц
Битовая глубина: 16 бит
Метод сжатия: С потерями
Размер потока: 289 Мбайт (19%)
Заголовок: Многоголосый
Язык: Russian








Поделиться:




реклама партнёра


Вернуться к началу
 Профиль Отправить личное сообщение  
 
   Похожие торренты   Автор   Торрент   Размер 
В этой теме нет новых непрочитанных сообщений. Сделано во Франции / Made in France (Николас Бухриф / Nicolas Boukhrief) [2015г., Франция, триллер, драма, криминал, HDRip] mvo

Alfredovich

1093 | 64

1.37 ГБ

В этой теме нет новых непрочитанных сообщений. Политики / Raajneeti [боевик, триллер, драма, криминал, 2010] HDRip, Mvo+Sub

salma3

5 | 4

2.92 ГБ

В этой теме нет новых непрочитанных сообщений. Политики / Raajneeti [боевик, триллер, драма, криминал, 2010] HDRip, Mvo [КПК]

salma3

3 | 2

511.74 МБ

В этой теме нет новых непрочитанных сообщений. Красный холм / Red Hill [триллер, драма, криминал, 2010] HDRip, Dvo

salma3

11 | 4

1.19 ГБ

В этой теме нет новых непрочитанных сообщений. Стражи Галактики / Guardians of the Galaxy [фантастика, боевик, приключения, 2014] HDRip, Dub [BD EUR]

Dracon

34 | 3

2.18 ГБ

В этой теме нет новых непрочитанных сообщений. День матери / Mother's Day [ужасы, триллер, драма, криминал, 2010] HDRip, Mvo

salma3

20 | 4

1.45 ГБ

В этой теме нет новых непрочитанных сообщений. Стражи Галактики / Guardians of the Galaxy [фантастика, боевик, приключения, 2014] HDRip, Dub [iTunes]

Dracon

19 | 4

1.46 ГБ


Начать новую тему Ответить на тему  [ 1 сообщение ] 




Для Мосгорсуда, Роскомнадзора и рекламодателей:: mosgorsud-torrent[собачка]yandex.ru