Торрент файл
скачать торрент магнет ссылка Добавлен: 20 янв 2012, 22:05
Размер: 4.15 ГБ
Сидеров: 1
Личеров: 3
Автор

СообщениеДобавлено: 20 янв 2012, 22:05 

Не в сети
Супермодератор
Аватара пользователя
Дата регистрации:
11 апр 2010, 18:10
Спасибо: 5802 / 7
Сообщения: 56779
Роковое влечение / Fatal Attraction

Перевод: Профессиональный (многоголосый, закадровый), cубтитры: Английские (полные, отключаемые)
Формат: HDRip, MKV, H.264, AC3
Страна: США
Режиссер: Эдриан Лайн
Жанр: триллер, драма
Продолжительность: 01:59:28
Год выпуска: 1987
В ролях: Майкл Дуглас, Гленн Клоуз, Энн Арчер, Эллен Хэмилтон Латцен, Стюарт Пэнкин, Эллен Фоли, Фред Гуинн, Мэг Манди, Том Бреннан, Лоис Смит
Описание: Беззаботной и счастливой была жизнь адвоката Дэна Галлагера с молодой женой Бэт и пятилетней дочерью Эллен до того рокового дня, когда Бэт и Эллен отправились загород к родителям, а у Дэна появилось два дня «свободы» от семейных уз. Почувствовав мимолётное влечение к Алекс Форрест- новой сотруднице обслуживаемой им фирмы, он был польщён взаимностью дамы и провёл с ней несколько часов любви, сначала в своём доме, а затем уже на квартире любовницы.
К исходу второго дня Дэн хотел благополучно вернуться к своему семейному очагу, но оказалось, что теперь он зажат мёртвой хваткой настоящей любовной маньячки. Она начала с того, что перерезала себе вены, и охваченному паникой Дэну пришлось бинтовать ей руки и утешать. Когда Дэну всё же удалось вырваться от Алекс к себе домой, его жизнь превратилась в настоящий кошмар…


Видео: 1280x720 (16:9), 23,976 fps, MPEG4 AVC (х264), High@L4.1 ~2200 kbps avg, 0.100 bit/pixel
Аудио#1:Русский: 48 kHz,AC-3, 6 ch, ~384.00 kbps avg [Профессиональный (многоголосый, закадровый)]
Аудио#2:Русский: 48 kHz,AC-3, 2 ch, ~192.00 kbps avg [Внешним файлом: Профессиональный (двухголосый, закадровый) (DVD R5/Universal Pictures Rus)]


Автор РИПа:
Награды:

Британская академия, 1989 год
Победитель (1):
Лучший монтаж
Номинации (2):
Лучшая мужская роль (Майкл Дуглас)
Лучшая женская роль второго плана (Энн Арчер)

Оскар, 1988 год
Номинации (6):
Лучший фильм
Лучшая женская роль (Гленн Клоуз)
Лучшая женская роль второго плана (Энн Арчер)
Лучший режиссер (Эдриан Лайн)
Лучший адаптированный сценарий
Лучший монтаж

Золотой глобус, 1988 год
Номинации (4):
Лучший фильм (драма)
Лучшая женская роль (драма) (Гленн Клоуз)
Лучшая женская роль второго плана (Энн Арчер)
Лучший режиссер (Эдриан Лайн)

Сатурн, 1988 год
Номинации (1):
Лучший сценарий

Общее
Уникальный идентификатор : 189090747441974233507996343233526571726 (0x8E418DA322CA18EC8369FBAB756322CE)
Полное имя : f:\Downloads\fatal_attraction_[tfile.ru]\fatal_attraction_[tfile.ru].mkv
Формат : Matroska
Версия формата : Version 2
Размер файла : 2,14 Гбайт
Продолжительность : 1 ч. 59 м.
Общий поток : 2566 Кбит/сек
Дата кодирования : UTC 2011-12-02 14:05:07
Программа кодирования : mkvmerge v4.6.0 ('Still Crazy After All These Years') сборка от Mar 10 2011 02:50:32
Библиотека кодирования : libebml v1.2.0 + libmatroska v1.1.0

Видео
Идентификатор : 1
Формат : AVC
Формат/Информация : Advanced Video Codec
Профиль формата : High@L4.1
Параметр CABAC формата : Да
Параметр ReFrames формата : 3 кадра
Режим смешивания : Header stripping
Идентификатор кодека : V_MPEG4/ISO/AVC
Продолжительность : 1 ч. 59 м.
Битрейт : 2200 Кбит/сек
Ширина : 1280 пикселей
Высота : 720 пикселей
Соотношение сторон : 16:9
Режим частоты кадров : Переменный
Частота кадров : 23,976 кадра/сек
Цветовое пространство : YUV
Субдискретизация насыщенности : 4:2:0
Битовая глубина : 8 бит
Тип развёртки : Прогрессивная
Бит/(Пиксели*Кадры) : 0.100
Размер потока : 1,78 Гбайт (83%)
Библиотека кодирования : x264 core 116 r2019M 9cc407d
Настройки программы : cabac=1 / ref=3 / deblock=1:-1:-1 / analyse=0x3:0x133 / me=hex / subme=7 / psy=1 / psy_rd=1.00:0.15 / mixed_ref=1 / me_range=16 / chroma_me=1 / trellis=1 / 8x8dct=1 / cqm=0 / deadzone=21,11 / fast_pskip=1 / chroma_qp_offset=-3 / threads=8 / sliced_threads=0 / nr=0 / decimate=1 / interlaced=0 / bluray_compat=0 / constrained_intra=0 / bframes=3 / b_pyramid=1 / b_adapt=2 / b_bias=0 / direct=3 / weightb=1 / open_gop=0 / weightp=2 / keyint=230 / keyint_min=23 / scenecut=40 / intra_refresh=0 / rc_lookahead=40 / rc=abr / mbtree=1 / bitrate=2200 / ratetol=1.0 / qcomp=0.60 / qpmin=10 / qpmax=51 / qpstep=4 / vbv_maxrate=31250 / vbv_bufsize=31250 / nal_hrd=none / ip_ratio=1.40 / aq=1:1.00
Язык : English
Default : Да
Forced : Нет

Аудио
Идентификатор : 2
Формат : AC-3
Формат/Информация : Audio Coding 3
Расширение режима : CM (complete main)
Режим смешивания : Header stripping
Идентификатор кодека : A_AC3
Продолжительность : 1 ч. 59 м.
Вид битрейта : Постоянный
Битрейт : 384 Кбит/сек
Каналы : 6 каналов
Расположение каналов : Front: L C R, Side: L R, LFE
Частота : 48,0 КГц
Битовая глубина : 16 бит
Метод сжатия : С потерями
Размер потока : 328 Мбайт (15%)
Заголовок : MVO (LDV)
Язык : Russian
Default : Да
Forced : Нет

Текст
Идентификатор : 3
Формат : UTF-8
Идентификатор кодека : S_TEXT/UTF8
Идентификатор кодека/Информация : UTF-8 Plain Text
Язык : English
Default : Нет
Forced : Нет

Меню
00:00:00.000 : en:Opening Credits
00:02:01.621 : en:Family Affair
00:12:36.046 : en:Are You Discreet?
00:16:55.389 : en:One Night Stand
00:21:48.598 : en:The Morning After
00:26:01.518 : en:A Walk in the Park
00:40:27.049 : en:Welcome Home
00:55:08.888 : en:You Play Fair, I'll Play Fair
00:59:49.252 : en:Breaking and Entering
01:13:44.503 : en:Car Trouble
01:16:12.317 : enlay Me
01:25:50.061 : en:The Rabbit
01:28:32.974 : en:It's Over
01:35:29.557 : en:Rollercoaster
01:40:55.340 : en:Revenge
01:46:06.234 : en:Bath Time
01:55:22.332 : en:End Credits














Поделиться:




реклама партнёра


Вернуться к началу
 Профиль Отправить личное сообщение  
 
   Похожие торренты   Автор   Торрент   Размер 
В этой теме нет новых непрочитанных сообщений. Fatale Attraction / Роковое влечение (DDF Production) (Nick Lang, Mya Diamond, Wein Lewis, Max Payne, Roxy Panther...) [2014 г., All Sex, Anal, Double Peneration, Gonzo, WEB-DL 720p]

kite

1 | 5

3.26 ГБ

В этой теме нет новых непрочитанных сообщений. Роковое влечение / Eperdument [драма, триллер, 2016] WEB-DL 1080p, Mvo [iTunes]

salma3

65 | 13

3.75 ГБ

В этой теме нет новых непрочитанных сообщений. Роковое влечение / Eperdument [драма, триллер, 2016] WEB-DLRip, Mvo [iTunes]

salma3

1861 | 57

1.46 ГБ

В этой теме нет новых непрочитанных сообщений. Attraction 65 - Attraction 65 [2003, Melodic Hard Rock, MP3]

PriZraK

0 | 1

116.77 МБ

В этой теме нет новых непрочитанных сообщений. Смертельное влечение / Heathers [триллер, комедия, криминал, 1988] HDRip, Mvo

salma3

87 | 6

1.45 ГБ

В этой теме нет новых непрочитанных сообщений. Тайное влечение / Adore [Драма, 2013] HDRip, dub [Чистый звук]

Dracon

1005 | 26

1.46 ГБ

В этой теме нет новых непрочитанных сообщений. Правила секса / The Rules of Attraction [Комедия, мелодрама, драма, триллер, 2002] BDRip 720p, Dub

salma3

48 | 4

3.74 ГБ


Начать новую тему Ответить на тему  [ 1 сообщение ] 




Для Мосгорсуда, Роскомнадзора и рекламодателей:: mosgorsud-torrent[собачка]yandex.ru