Торрент файл
скачать торрент магнет ссылка Добавлен: 20 янв 2012, 21:44
Размер: 1.45 ГБ
Сидеров: 6
Личеров: 4
Автор

СообщениеДобавлено: 20 янв 2012, 21:44 

Не в сети
Супермодератор
Аватара пользователя
Дата регистрации:
11 апр 2010, 18:10
Спасибо: 5962 / 7
Сообщения: 56762
Под подозрением / Under Suspicion

Перевод: Профессиональный (двухголосый), cубтитры: английские
Формат: HDRip-AVC, MKV, H.264, AC3
Страна: США, Великобритания
Режиссер: Саймон Мур
Жанр: триллер, драма, криминал
Продолжительность: 01:39:57
Год выпуска: 1991

В ролях: Лиам Нисон, Лора Сан Джакомо, Кеннет Крэнэм, Мэгги О’Нил, Алан Тэлбот, Малкольм Сторри, Мартин Грэйс, Кевин Мур, Стефен Оксли, Колин Дадли, Ричард Грэхэм

Описание: Частный детектив «устраивает» разводы. Он добивается супружеской неверности, а роль любовницы, «подкидываемой» в постель к клиентам играет его жена Хейзел. Однажды, в канун Рождества, Тони врывается в гостиничный номер и нажимает на затвор фотоаппарата. В его объектив попадают сразу два трупа: Хейзел и клиента. На наследство убитого, знаменитого художника, претендуют его вдова и бывшая любовница. А Тони оказывается главным подозреваемым в убийстве…



Видео: 992x416, 23,976 fps, AVC(x264), High@L4.1 ~1566 kbps, 0.158 bit/pixel
Аудио #1:Русский: 48 kHz, AC3 Dolby Digital, 2/0 (L,R) ch, ~192 kbps [Профессиональный (двухголосый)]
Аудио #2:Русский: 48 kHz, AC3 Dolby Digital, 2/0 (L,R) ch, ~192 kbps [Авторский (А. Гаврилов)]
Аудио #3:Английский: 44.100 kHz, MPEG Layer 3, 2 ch, ~128.00 kbps avg [Оригинал]

Рип: Undertaker99

Общее
Уникальный идентификатор: 170666806997934750620982133725343242858 (0x80653B3DC0CD0467A59D728D79F3DA6A)
Полное имя: D:\Релизы\Under_Suspicin_[tfile.ru].mkv
Формат: Matroska
Размер файла: 1,45 Гбайт
Продолжительность: 1 ч. 39 м.
Общий поток: 2080 Кбит/сек
Дата кодирования: UTC 2011-12-26 17:02:07
Программа кодирования: mkvmerge v5.0.1 ('Es ist Sommer') built on Oct9 2011 11:55:43
Библиотека кодирования: libebml v1.2.2 + libmatroska v1.3.0

Видео
Идентификатор: 1
Формат: AVC
Формат/Информация: Advanced Video Codec
Профиль формата: High@L4.1
Параметр CABAC формата: Да
Параметр ReFrames формата: 4 кадра
Идентификатор кодека: V_MPEG4/ISO/AVC
Продолжительность: 1 ч. 39 м.
Битрейт: 1566 Кбит/сек
Ширина: 992 пикс.
Высота: 416 пикс.
Соотношение сторон: 2,35:1
Частота кадров: 23,976 кадр/сек
Цветовое пространство: YUV
Подвыборка цветности: 4:2:0
Битовая глубина: 8 бит
Тип развёртки: Прогрессивная
Бит/(Пиксели*Кадры): 0.158
Размер потока: 1,07 Гбайт (73%)
Библиотека кодирования: x264 core 116 r2074 2641b9e
Настройки программы: cabac=1 / ref=4 / deblock=1:-1:-1 / analyse=0x3:0x113 / me=umh / subme=7 / psy=1 / psy_rd=1.00:0.00 / mixed_ref=1 / me_range=16 / chroma_me=1 / trellis=2 / 8x8dct=1 / cqm=0 / deadzone=21,11 / fast_pskip=1 / chroma_qp_offset=-2 / threads=1 / sliced_threads=0 / nr=0 / decimate=1 / interlaced=0 / bluray_compat=0 / constrained_intra=0 / bframes=3 / b_pyramid=0 / b_adapt=2 / b_bias=0 / direct=3 / weightb=1 / open_gop=0 / weightp=2 / keyint=250 / keyint_min=23 / scenecut=40 / intra_refresh=0 / rc_lookahead=40 / rc=2pass / mbtree=1 / bitrate=1566 / ratetol=1.0 / qcomp=0.60 / qpmin=10 / qpmax=51 / qpstep=4 / cplxblur=20.0 / qblur=0.5 / vbv_maxrate=50000 / vbv_bufsize=50000 / nal_hrd=none / ip_ratio=1.40 / aq=1:1.00
Язык: English

Аудио #1
Идентификатор: 2
Формат: AC-3
Формат/Информация: Audio Coding 3
Расширение режима: CM (complete main)
Идентификатор кодека: A_AC3
Продолжительность: 1 ч. 39 м.
Вид битрейта: Постоянный
Битрейт: 192 Кбит/сек
Каналы: 2 канала
Расположение каналов: Front: L R
Частота: 48,0 КГц
Битовая глубина: 16 бит
Метод сжатия: С потерями
Размер потока: 137 Мбайт (9%)
Заголовок: DVO

Аудио #2
Идентификатор: 3
Формат: AC-3
Формат/Информация: Audio Coding 3
Расширение режима: CM (complete main)
Идентификатор кодека: A_AC3
Продолжительность: 1 ч. 39 м.
Вид битрейта: Постоянный
Битрейт: 192 Кбит/сек
Каналы: 2 канала
Расположение каналов: Front: L R
Частота: 48,0 КГц
Битовая глубина: 16 бит
Метод сжатия: С потерями
Размер потока: 137 Мбайт (9%)
Заголовок: AVO

Аудио #3
Идентификатор: 4
Формат: MPEG Audio
Версия формата: Version 1
Профиль формата: Layer 3
Режим: Joint stereo
Расширение режима: MS Stereo
Идентификатор кодека: A_MPEG/L3
Идентификатор кодека/Подсказка: MP3
Продолжительность: 1 ч. 39 м.
Вид битрейта: Постоянный
Битрейт: 128 Кбит/сек
Каналы: 2 канала
Частота: 44,1 КГц
Метод сжатия: С потерями
Размер потока: 91,5 Мбайт (6%)
Заголовок: ENG

Текст
Идентификатор: 5
Формат: UTF-8
Идентификатор кодека: S_TEXT/UTF8
Идентификатор кодека/Информация: UTF-8 Plain Text









Поделиться:




реклама партнёра


Вернуться к началу
 Профиль Отправить личное сообщение  
 
   Похожие торренты   Автор   Торрент   Размер 
В этой теме нет новых непрочитанных сообщений. Под подозрением / Under Suspicion [триллер, драма, криминал, 1991] BDRip, Dvo

salma3

108 | 19

1.45 ГБ

В этой теме нет новых непрочитанных сообщений. Под подозрением / Under Suspicion [триллер, драма, криминал, 1991] BDRip 1080p, Dvo

salma3

0 | 0

11.8 ГБ

В этой теме нет новых непрочитанных сообщений. Под подозрением / Under Suspicion [драма, триллер, криминал, 2000] DVDRip, Mvo

salma3

101 | 7

1.47 ГБ

В этой теме нет новых непрочитанных сообщений. Виновен по подозрению / Guilty by Suspicion [Драма, триллер, 1991] WEB-DLRip, Avo

salma3

18 | 0

1.45 ГБ

В этой теме нет новых непрочитанных сообщений. Обратная тяга / Backdraft [Боевик, триллер, драма, криминал, детектив, 1991] HDRip, Avo

salma3

23 | 1

1.46 ГБ

В этой теме нет новых непрочитанных сообщений. Вне подозрений / Above Suspicion [триллер, драма, 1995] DVDRip, Mvo

salma3

54 | 5

1.42 ГБ

В этой теме нет новых непрочитанных сообщений. Полицейский-самурай / Samurai Cop [боевик, триллер, криминал, 1991] HDRip, Avo

salma3

60 | 3

1.22 ГБ


Начать новую тему Ответить на тему  [ 1 сообщение ] 




Для Мосгорсуда, Роскомнадзора и рекламодателей:: mosgorsud-torrent[собачка]yandex.ru