Торрент файл
скачать торрент магнет ссылка Добавлен: 20 янв 2012, 21:42
Размер: 2.07 ГБ
Сидеров: 14
Личеров: 5
Автор

СообщениеДобавлено: 20 янв 2012, 21:42 

Не в сети
Супермодератор
Аватара пользователя
Дата регистрации:
11 апр 2010, 18:10
Спасибо: 5802 / 7
Сообщения: 56779
[b]Профессионал / Killer Elite[/b]


Перевод: Профессиональный (полное дублирование)
Субтитры: отсутствуют
Формат: HDRip-AVC, MKV, H.264, AC3

Страна:США, Австралия

Режиссер: Гэри МакКендри
Жанр: боевик, триллер
Продолжительность: 01:56:42
Год выпуска: 2011

В ролях: Джейсон Стэтхэм, Клайв Оуэн, Роберт Де Ниро, Ивонн Страховски, Доминик Пурселл, Адевале Акиннуойе-Агбадже, Майкл Дорман, Грант Боулер, Бен Мендельсон, Кристи Барнс Каллен.

Описание: Бывшему бойцу британских силовых структур приходится забыть о тихой размеренной жизни отставника, когда его лучший друг оказывается в опасности.



Видео: 1024x432 (2.35:1), 23.976 fps, AVC MPEG-4 High@L4.1 ~1773 kbps avg, 0.167 bit/pixel
Аудио #1: русский48 kHz, AC3 Dolby Digital, 3/2 (L,C,R,l,r) + LFE ch, ~384 kbps avg [Профессиональный (полное дублирование)]
Аудио #2: английский48 kHz, AC3 Dolby Digital, 3/2 (L,C,R,l,r) + LFE ch, ~384 kbps avg [оригинал]

Релиз группы

Рип от: __


General
Unique ID: 184967991196040685389419526339004899639 (0x8B278A0F8C93F6D6BC3E76441F62A137)
Complete name: D:\Мои рипы\Professional.2011.D.HDRip.mkv
Format: Matroska
Format version: Version 2
File size: 2.07 GiB
Duration: 1h 56mn
Overall bit rate: 2 535 Kbps
Movie name: Killer.Elite.S.I.D
Encoded date: UTC 2012-01-03 00:19:44
Writing application: mkvmerge v2.9.8 ('C'est le bon') built on Aug 13 2009 12:49:06
Writing library: libebml v0.7.7 + libmatroska v0.8.1

Video
ID: 1
Format: AVC
Format/Info: Advanced Video Codec
Format profile: High@L4.1
Format settings, CABAC: Yes
Format settings, ReFrames: 8 frames
Codec ID: V_MPEG4/ISO/AVC
Duration: 1h 56mn
Bit rate: 1 773 Kbps
Width: 1 024 pixels
Height: 432 pixels
Display aspect ratio: 2.35:1
Frame rate: 23.976 fps
Color space: YUV
Chroma subsampling: 4:2:0
Bit depth: 8 bits
Scan type: Progressive
Bits/(Pixel*Frame): 0.167
Stream size: 1.40 GiB (68%)
Title: RG Films Tfile
Writing library: x264 core 119 r2106 07efeb4
Encoding settings: cabac=1 / ref=8 / deblock=1:-1:-1 / analyse=0x3:0x111 / me=umh / subme=0 / psy=1 / psy_rd=1.00:0.10 / mixed_ref=1 / me_range=16 / chroma_me=1 / trellis=2 / 8x8dct=1 / cqm=0 / deadzone=21,11 / fast_pskip=0 / chroma_qp_offset=-1 / threads=6 / sliced_threads=0 / nr=0 / decimate=1 / interlaced=0 / bluray_compat=0 / constrained_intra=0 / bframes=8 / b_pyramid=2 / b_adapt=2 / b_bias=0 / direct=1 / weightb=1 / open_gop=0 / weightp=2 / keyint=250 / keyint_min=23 / scenecut=40 / intra_refresh=0 / rc_lookahead=50 / rc=abr / mbtree=1 / bitrate=1773 / ratetol=1.0 / qcomp=0.60 / qpmin=0 / qpmax=69 / qpstep=4 / ip_ratio=1.40 / aq=1:1.00
Language: English
Default: Yes
Forced: No

Audio #1
ID: 2
Format: AC-3
Format/Info: Audio Coding 3
Mode extension: CM (complete main)
Codec ID: A_AC3
Duration: 1h 56mn
Bit rate mode: Constant
Bit rate: 384 Kbps
Channel(s): 6 channels
Channel positions: Front: L C R, Side: L R, LFE
Sampling rate: 48.0 KHz
Bit depth: 16 bits
Compression mode: Lossy
Stream size: 321 MiB (15%)
Title: dubliaj
Language: Russian
Default: Yes
Forced: No

Audio #2
ID: 3
Format: AC-3
Format/Info: Audio Coding 3
Mode extension: CM (complete main)
Codec ID: A_AC3
Duration: 1h 56mn
Bit rate mode: Constant
Bit rate: 384 Kbps
Channel(s): 6 channels
Channel positions: Front: L C R, Side: L R, LFE
Sampling rate: 48.0 KHz
Bit depth: 16 bits
Compression mode: Lossy
Stream size: 321 MiB (15%)
Title: original
Language: English
Default: No
Forced: No








Поделиться:




реклама партнёра


Вернуться к началу
 Профиль Отправить личное сообщение  
 
   Похожие торренты   Автор   Торрент   Размер 
В этой теме нет новых непрочитанных сообщений. Я не серийный убийца / I Am Not a Serial Killer [триллер, 2016] HDRip, Avo

salma3

97 | 1

1.25 ГБ

В этой теме нет новых непрочитанных сообщений. Праздник для убийцы / Killer Holiday [ужасы, триллер, 2013] HDRip, Dvo

salma3

479 | 37

1.37 ГБ

В этой теме нет новых непрочитанных сообщений. Кролик-убийца / Bunny the Killer Thing [ужасы, боевик, комедия, 2015] HDRip, Avo

salma3

0 | 0

1.46 ГБ

В этой теме нет новых непрочитанных сообщений. Скорпион / Scorpion [02х01-15 из 22] (Гэри Фледер, Дуайт Х. Литтл, Бобби Рот) [2015, триллер, драма, боевик, WEB-DLRip | BaibaKo]

Dracon

25 | 99

7.57 ГБ

В этой теме нет новых непрочитанных сообщений. Скорпион / Scorpion [01x01-05 из 13] (Гэри Фледер, Дуайт Х. Литтл, Бобби Рот) [2014, триллер, драма, боевик, WEB-DL 720p | IdeaFilm]

Nickolas3435

15 | 28

7.55 ГБ

В этой теме нет новых непрочитанных сообщений. Скорпион / Scorpion [01x01-13 из 22] (Гэри Фледер, Дуайт Х. Литтл, Бобби Рот)[2014, триллер, драма, боевик, WEB-DLRip | BaibaKo]

Nickolas3435

28 | 25

7.26 ГБ

В этой теме нет новых непрочитанных сообщений. Профессионал [01-16 из 16] [Боевик, 2014] SATRip

Dracon

15 | 5

8.73 ГБ


Начать новую тему Ответить на тему  [ 1 сообщение ] 




Для Мосгорсуда, Роскомнадзора и рекламодателей:: mosgorsud-torrent[собачка]yandex.ru