Торрент файл
скачать торрент магнет ссылка Добавлен: 20 янв 2012, 21:41
Размер: 2.23 ГБ
Сидеров: 12
Личеров: 4
Автор

СообщениеДобавлено: 20 янв 2012, 21:41 

Не в сети
Супермодератор
Аватара пользователя
Дата регистрации:
11 апр 2010, 18:10
Спасибо: 5801 / 7
Сообщения: 56779
Предел риска / Margin Call

«Как спасти деньги?»

Перевод: Профессиональный (полное дублирование) [лицензия]
Субтитры: отсутствуют
Формат: HDRip-AVC, MKV, H.264, AC3

Страна: США
Режиссер: Джей Си Чендор
Жанр: триллер

Продолжительность: 01:46:23
Год выпуска: 2011

В ролях: Кевин Спейси, Пол Беттани, Джереми Айронс, Закари Куинто, Пенн Бэджли, Саймон Бейкер, Мэри МакДоннелл, Деми Мур, Стенли Туччи, Аасиф Мандви

Описание: Сентябрь 2008 года. Мировой экономический кризис уже начался, но Америка еще не знает, какая катастрофа ждет впереди, и только группа топ-менеджеров на Уолл-Стрит ищет рецепт спасения. Это были самые страшные часы в их жизни… Сотрудник одного из крупнейших инвестиционных банков Lehman Brothers с помощью новейшей программы рыночного анализа получает ошеломляющий прогноз — акции упадут, рынок рухнет, банк потеряет все. Утром следующего дня он попадает под сокращение и перед уходом передает флэшку с опасной информацией своему бывшему помощнику. К вечеру лучшие аналитики банка, проверив эти вычисления, осознали ужасную перспективу: крах неминуем. Теперь они стоят перед выбором: начать срочный сброс акций, что оставит и крупных акционеров во всем мире, и миллионы рядовых вкладчиков ни с чем — или ждать развития событий, что чревато потерей вообще всего. Решать нужно здесь и сейчас. На кону — огромные деньги и будущее каждого. В эту ночь у риска нет предела…







Видео: 960x520 (16:9), 23.976 fps, AVC (x264) High@L4.1 ~2551 kbps avg, 0.213 bit/pixel
Аудио:48 kHz, AC3 Dolby Digital, 3/2 (L,C,R,l,r) + LFE ch, ~448 kbps avg

Релиз-Группа:

Рип от:TswetkOFF





Format: Matroska
File size: 2.23 GiB
Duration: 1h 46mn
Overall bit rate: 3 001 Kbps
Encoded date: UTC 2012-01-04 20:11:43
Writing application: mkvmerge v4.6.0 ('Still Crazy After All These Years') сборка от Apr1 2011 21:01:49
Writing library: libebml v1.2.0 + libmatroska v1.1.0

Video
ID: 1
Format: AVC
Format/Info: Advanced Video Codec
Format profile: High@L4.1
Format settings, CABAC: Yes
Format settings, ReFrames: 4 frames
Format settings, GOP: M=4, N=16
Codec ID: V_MPEG4/ISO/AVC
Duration: 1h 46mn
Bit rate: 2 551 Kbps
Width: 960 pixels
Height: 520 pixels
Display aspect ratio: 16:9
Frame rate: 24.000 fps
Color space: YUV
Chroma subsampling: 4:2:0
Bit depth: 8 bits
Scan type: Progressive
Bits/(Pixel*Frame): 0.213
Stream size: 1.85 GiB (83%)
Writing library: x264 core 115 r1937 aa21558
Encoding settings: cabac=1 / ref=3 / deblock=1:0:0 / analyse=0x3:0x113 / me=hex / subme=7 / psy=1 / psy_rd=1.00:0.00 / mixed_ref=1 / me_range=16 / chroma_me=1 / trellis=1 / 8x8dct=1 / cqm=0 / deadzone=21,11 / fast_pskip=1 / chroma_qp_offset=-2 / threads=3 / sliced_threads=0 / nr=0 / decimate=1 / interlaced=0 / bluray_compat=0 / constrained_intra=0 / bframes=3 / b_pyramid=2 / b_adapt=1 / b_bias=0 / direct=1 / weightb=1 / open_gop=0 / weightp=2 / keyint=250 / keyint_min=24 / scenecut=40 / intra_refresh=0 / rc_lookahead=40 / rc=2pass / mbtree=1 / bitrate=2551 / ratetol=1.0 / qcomp=0.60 / qpmin=0 / qpmax=69 / qpstep=4 / cplxblur=20.0 / qblur=0.5 / ip_ratio=1.40 / aq=1:1.00

Audio
ID: 2
Format: AC-3
Format/Info: Audio Coding 3
Mode extension: CM (complete main)
Codec ID: A_AC3
Duration: 1h 46mn
Bit rate mode: Constant
Bit rate: 448 Kbps
Channel(s): 6 channels
Channel positions: Front: L C R, Side: L R, LFE
Sampling rate: 48.0 KHz
Bit depth: 16 bits
Compression mode: Lossy
Stream size: 341 MiB (15%)











Поделиться:




реклама партнёра


Вернуться к началу
 Профиль Отправить личное сообщение  
 
   Похожие торренты   Автор   Торрент   Размер 
В этой теме нет новых непрочитанных сообщений. Самый жестокий год / A Most Violent Year (Джей Си Чендор) [боевик, триллер, драма, криминал, 2014] HDRip, dvo

Dracon

92 | 4

1.35 ГБ

В этой теме нет новых непрочитанных сообщений. Самый жестокий год / A Most Violent Year (Джей Си Чендор) [боевик, триллер, драма, криминал, 2014] BDRip 720p, dvo+sub

Dracon

74 | 7

5.21 ГБ

В этой теме нет новых непрочитанных сообщений. Самый жестокий год / A Most Violent Year (Джей Си Чендор) [боевик, триллер, драма, криминал, 2014] BDRip 1080p, dvo+avo+sub

Dracon

2 | 2

11.9 ГБ

В этой теме нет новых непрочитанных сообщений. Самый жестокий год / A Most Violent Year (Джей Си Чендор) [боевик, триллер, драма, криминал, 2014] BDRip 720p, dvo

Dracon

90 | 15

2.86 ГБ

В этой теме нет новых непрочитанных сообщений. Самый жестокий год / A Most Violent Year (Джей Си Чендор) [2014, Драма, боевик, триллер, криминал, WEB-DLRip 720p] Sub

Nickolas3435

419 | 21

1.89 ГБ

В этой теме нет новых непрочитанных сообщений. Не угаснет надежда / All Is Lost (Джей Си Чендор / J.C. Chandor) [2013г., драма, приключения, PPVRip] AVO

Alfredovich

8 | 2

735.61 МБ

В этой теме нет новых непрочитанных сообщений. Девочка по вызову / Call Girl [триллер, драма, 2013] HDRip, dvo

Dracon

203 | 5

2.1 ГБ


Начать новую тему Ответить на тему  [ 1 сообщение ] 




Для Мосгорсуда, Роскомнадзора и рекламодателей:: mosgorsud-torrent[собачка]yandex.ru