Торрент файл
скачать торрент магнет ссылка Добавлен: 20 янв 2012, 21:39
Размер: 2.1 ГБ
Сидеров: 400
Личеров: 25
Автор

СообщениеДобавлено: 20 янв 2012, 21:39 

Не в сети
Супермодератор
Аватара пользователя
Дата регистрации:
11 апр 2010, 18:10
Спасибо: 5801 / 7
Сообщения: 56779
Девушка с татуировкой дракона / Man som hatar kvinnor


Перевод: Профессиональный (полное дублирование), cубтитры: отсутствуют
Формат: HDRip-AVC, MKV, H.264, AC3
Страна: Германия, Дания, Швеция, Норвегия
Режиссер: Нильс Арден Оплев
Жанр: триллер, драма, криминал, детектив
Продолжительность: 02:32:42
Год выпуска: 2009

В ролях: Микаэль Нюквист, Номи Рапасе, Лена Эндре, Петер Хабер, Свен-Бертиль Таубе, Петер Андерссон, Ингвар Хирдвалль, Марика Лагеркранц, Бьерн Гранат, Эва Фрелинг

Описание: Одного из основателей журнала «Миллениум», журналиста Микаэля Блумквиста приговаривают к 3 месяцам тюрьмы за клевету: воротила крупного бизнеса сумел опротестовать в суде разоблачительную статью Блумквиста. Установленный штраф ставит журнал на грань банкротства. Неожиданно Блумквист получает загадочное предложение: 82-летний глава некоего промышленного клана просит журналиста раскрыть таинственное убийство его 16-летней внучатой племянницы, которое случилось 36 лет назад. В иное время Блумквист не стал бы даже думать об этом странном предложении, но безвыходная финансовая ситуация заставляет его взяться за дело. Очень скоро новоиспеченный детектив понимает, что без квалифицированного помощника ему не справиться. Так к расследованию подключается 24-летняя Лисбет Саландер, которая работает в охранной фирме и обладает массой полезных и необъяснимых навыков. Вскоре парочке удается нащупать нити, ведущие к развязке леденящей кровь истории о таинственной пропаже юной особы…



Видео: 960 x 408 (2.35:1), 24.000 fps, AVC (х264) High@L4.1, ~ 1587 Kbps, 0.169 bit/pixel
Аудио: 48 kHz, AC3 Dolby Digital, 3/2 (L,C,R,l,r) + LFE ch, ~384 kbps avg


Рип: jeenart

General
Unique ID: 223091161844140890791854930145539271793 (0xA7D5CB7E111B18E0AFFB60036AE02C71)
Complete name: F:\Мои релизы\Все релизы 10\devushka_s_tatuirovkoi_drakona_[tfile.ru].mkv
Format: Matroska
File size: 2.10 GiB
Duration: 2h 32mn
Overall bit rate: 1 972 Kbps
Encoded date: UTC 2012-01-06 16:57:40
Writing application: mkvmerge v4.6.0 ('Still Crazy After All These Years') сборка от Apr1 2011 21:01:49
Writing library: libebml v1.2.0 + libmatroska v1.1.0

Video
ID: 1
Format: AVC
Format/Info: Advanced Video Codec
Format profile: High@L4.1
Format settings, CABAC: Yes
Format settings, ReFrames: 4 frames
Codec ID: V_MPEG4/ISO/AVC
Duration: 2h 32mn
Bit rate: 1 587 Kbps
Width: 960 pixels
Height: 408 pixels
Display aspect ratio: 2.35:1
Frame rate: 24.000 fps
Color space: YUV
Chroma subsampling: 4:2:0
Bit depth: 8 bits
Scan type: Progressive
Bits/(Pixel*Frame): 0.169
Stream size: 1.65 GiB (79%)
Writing library: x264 core 115 r1937 aa21558
Encoding settings: cabac=1 / ref=3 / deblock=1:-1:-1 / analyse=0x3:0x113 / me=hex / subme=7 / psy=1 / psy_rd=1.00:0.10 / mixed_ref=1 / me_range=16 / chroma_me=1 / trellis=1 / 8x8dct=1 / cqm=0 / deadzone=21,11 / fast_pskip=1 / chroma_qp_offset=-3 / threads=6 / sliced_threads=0 / nr=0 / decimate=1 / interlaced=0 / bluray_compat=0 / constrained_intra=0 / bframes=3 / b_pyramid=2 / b_adapt=1 / b_bias=0 / direct=3 / weightb=1 / open_gop=0 / weightp=2 / keyint=250 / keyint_min=23 / scenecut=40 / intra_refresh=0 / rc_lookahead=40 / rc=2pass / mbtree=1 / bitrate=1587 / ratetol=1.0 / qcomp=0.60 / qpmin=0 / qpmax=69 / qpstep=4 / cplxblur=20.0 / qblur=0.5 / ip_ratio=1.40 / aq=1:1.00

Audio
ID: 2
Format: AC-3
Format/Info: Audio Coding 3
Mode extension: CM (complete main)
Codec ID: A_AC3
Duration: 2h 32mn
Bit rate mode: Constant
Bit rate: 384 Kbps
Channel(s): 6 channels
Channel positions: Front: L C R, Side: L R, LFE
Sampling rate: 48.0 KHz
Bit depth: 16 bits
Compression mode: Lossy
Stream size: 419 MiB (19%)
















Поделиться:




реклама партнёра


Вернуться к началу
 Профиль Отправить личное сообщение  
 
   Похожие торренты   Автор   Торрент   Размер 
В этой теме нет новых непрочитанных сообщений. Под куполом / Under the Dome [03x01-13 из 13] (Нильс Арден Оплев, Джек Бендер) [2015, фантастика, триллер, драма, детектив, WEB-DL 720p | BaibaKo]

Dracon

24 | 40

17.64 ГБ

В этой теме нет новых непрочитанных сообщений. Мистер Робот / Mr. Robot [01x01-10 из 10] (Нильс Арден Оплев) [драма, криминал, 2015] WEB-DL 720p [IdeaFilm]

Dracon

6 | 6

13.41 ГБ

В этой теме нет новых непрочитанных сообщений. Мистер Робот / Mr. Robot [01х01-10 из 10] (Нильс Арден Оплев) [драма, криминал, 2015] WEB-DL 1080p [LostFilm]

Dracon

38 | 94

20.35 ГБ

В этой теме нет новых непрочитанных сообщений. Мистер Робот / Mr. Robot [01х01-10 из 10] (Нильс Арден Оплев) [драма, криминал, 2015] WEB-DLRip [IDEAFILM]

Dracon

150 | 132

5.83 ГБ

В этой теме нет новых непрочитанных сообщений. Мистер Робот / Mr. Robot [01x01-10 из 10] (Нильс Арден Оплев) [драма, криминал, 2015] WEB-DL 720p [NewStudio]

Dracon

11 | 20

16.12 ГБ

В этой теме нет новых непрочитанных сообщений. Мистер Робот / Mr. Robot [01х01-10 из 10] (Нильс Арден Оплев) [2015, драма, криминал, WEB-DLRip | LostFilm]

Dracon

130 | 66

3.46 ГБ

В этой теме нет новых непрочитанных сообщений. Мистер Робот / Mr. Robot [01х01-10 из 10] (Нильс Арден Оплев) [драма, криминал, 2015] WEB-DL 1080p [NewStudio]

Dracon

168 | 83

19.52 ГБ


Начать новую тему Ответить на тему  [ 1 сообщение ] 




Для Мосгорсуда, Роскомнадзора и рекламодателей:: mosgorsud-torrent[собачка]yandex.ru