Торрент файл
скачать торрент магнет ссылка Добавлен: 20 янв 2012, 21:39
Размер: 1.49 ГБ
Сидеров: 5
Личеров: 5
Автор

СообщениеДобавлено: 20 янв 2012, 21:39 

Не в сети
Супермодератор
Аватара пользователя
Дата регистрации:
11 апр 2010, 18:10
Спасибо: 5801 / 7
Сообщения: 56779
[b]Любит - не любит... / Homecoming[/b]


Перевод: Профессиональный (двухголосый закадровый)
Субтитры: отсутствуют
Формат: HDRip-AVC, MKV, H.264, AC3

Страна:США

Режиссер: Морган Дж. Фриман
Жанр: триллер, драма
Продолжительность: 01:35:14
Год выпуска: 2009

В ролях: Миша Бартон, Мэтт Лонг, Джессика Строуп, Майкл Лэндис, Аллен Уильямсон, Джошуа Риз, Джои Форгиони, Алекс Хупер, Берди Белл.

Описание: Шелби никак не может забыть свою первую любовь, молодого человека Майка, который бросил её и уехал. Проходит время и бывший бойфренд приезжает в своей родной город с новой подругой. И тогда обманутая девушка решает мстить…



Видео: 1024x432 (2.35:1), 23.976 fps, AVC MPEG-4 High@L4.1 ~1696 kbps avg, 0.160 bit/pixel
Аудио #1: русский48 kHz, AC3 Dolby Digital, 3/2 (L,C,R,l,r) + LFE ch, ~384 kbps avg [Профессиональный (двухголосый закадровый) R5]
Аудио #2: английский48 kHz, AC3 Dolby Digital, 2/0 (L, R) ch, ~192 kbps avg [оригинал]

Рип от: __


General
Unique ID: 195688817977303061279256097459444241924 (0x93384BA175937AF7BE6B6F930329D604)
Complete name: D:\Мои рипы\Ljubit.ne.ljubit.2009.P2.HDRip.mkv
Format: Matroska
Format version: Version 2
File size: 1.49 GiB
Duration: 1h 35mn
Overall bit rate: 2 238 Kbps
Movie name: Homecoming.S.I.D
Encoded date: UTC 2012-01-08 18:14:39
Writing application: mkvmerge v2.9.8 ('C'est le bon') built on Aug 13 2009 12:49:06
Writing library: libebml v0.7.7 + libmatroska v0.8.1

Video
ID: 1
Format: AVC
Format/Info: Advanced Video Codec
Format profile: High@L4.1
Format settings, CABAC: Yes
Format settings, ReFrames: 8 frames
Codec ID: V_MPEG4/ISO/AVC
Duration: 1h 35mn
Bit rate: 1 696 Kbps
Width: 1 024 pixels
Height: 432 pixels
Display aspect ratio: 2.35:1
Frame rate: 23.976 fps
Color space: YUV
Chroma subsampling: 4:2:0
Bit depth: 8 bits
Scan type: Progressive
Bits/(Pixel*Frame): 0.160
Stream size: 1.08 GiB (72%)
Writing library: x264 core 119 r2106 07efeb4
Encoding settings: cabac=1 / ref=8 / deblock=1:-1:-1 / analyse=0x3:0x111 / me=umh / subme=0 / psy=1 / psy_rd=1.00:0.10 / mixed_ref=1 / me_range=16 / chroma_me=1 / trellis=2 / 8x8dct=1 / cqm=0 / deadzone=21,11 / fast_pskip=0 / chroma_qp_offset=-1 / threads=6 / sliced_threads=0 / nr=0 / decimate=1 / interlaced=0 / bluray_compat=0 / constrained_intra=0 / bframes=5 / b_pyramid=2 / b_adapt=2 / b_bias=0 / direct=1 / weightb=1 / open_gop=0 / weightp=2 / keyint=250 / keyint_min=23 / scenecut=40 / intra_refresh=0 / rc_lookahead=40 / rc=abr / mbtree=1 / bitrate=1696 / ratetol=1.0 / qcomp=0.60 / qpmin=0 / qpmax=69 / qpstep=4 / ip_ratio=1.40 / aq=1:1.00
Language: English
Default: Yes
Forced: No

Audio #1
ID: 2
Format: AC-3
Format/Info: Audio Coding 3
Mode extension: CM (complete main)
Codec ID: A_AC3
Duration: 1h 35mn
Bit rate mode: Constant
Bit rate: 384 Kbps
Channel(s): 6 channels
Channel positions: Front: L C R, Side: L R, LFE
Sampling rate: 48.0 KHz
Bit depth: 16 bits
Compression mode: Lossy
Stream size: 262 MiB (17%)
Title: двухголосый R5
Language: Russian
Default: Yes
Forced: No

Audio #2
ID: 3
Format: AC-3
Format/Info: Audio Coding 3
Mode extension: CM (complete main)
Codec ID: A_AC3
Duration: 1h 35mn
Bit rate mode: Constant
Bit rate: 192 Kbps
Channel(s): 2 channels
Channel positions: Front: L R
Sampling rate: 48.0 KHz
Bit depth: 16 bits
Compression mode: Lossy
Stream size: 131 MiB (9%)
Title: оригинал
Language: English
Default: No
Forced: No








Поделиться:




реклама партнёра


Вернуться к началу
 Профиль Отправить личное сообщение  
 
   Похожие торренты   Автор   Торрент   Размер 
В этой теме нет новых непрочитанных сообщений. Любит - не любит... / Homecoming [Триллер, драма, 2009] ВDRip 1080р, Dvo+Sub

salma3

92 | 50

7.74 ГБ

В этой теме нет новых непрочитанных сообщений. Любит - не любит... / Homecoming [Триллер, драма, 2009] BDRemux 1080p, Dvo+Sub

salma3

7 | 52

17.09 ГБ

В этой теме нет новых непрочитанных сообщений. Любит не любит (Клим Шипенко) [комедия, 2014] HDTV 1080i

Dracon

128 | 12

5.4 ГБ

В этой теме нет новых непрочитанных сообщений. Любит не любит (Клим Шипенко) [комедия, 2014] WEB-DL 1080p [iTunes]

Dracon

161 | 7

2.84 ГБ

В этой теме нет новых непрочитанных сообщений. Любит не любит [комедия, 2014] DVDRip [Лицензия]

Dracon

93 | 9

1.37 ГБ

В этой теме нет новых непрочитанных сообщений. Любит не любит [комедия, 2014] WEB-DL 720p [iTunes]

Dracon

1854 | 40

2.59 ГБ

В этой теме нет новых непрочитанных сообщений. Красотка любит в попку (2010) CamRip

Max79

109 | 8

201.17 МБ


Начать новую тему Ответить на тему  [ 1 сообщение ] 




Для Мосгорсуда, Роскомнадзора и рекламодателей:: mosgorsud-torrent[собачка]yandex.ru