Торрент файл
скачать торрент магнет ссылка Добавлен: 20 янв 2012, 21:38
Размер: 1.48 ГБ
Сидеров: 7
Личеров: 5
Автор

СообщениеДобавлено: 20 янв 2012, 21:38 

Не в сети
Супермодератор
Аватара пользователя
Дата регистрации:
11 апр 2010, 18:10
Спасибо: 5801 / 7
Сообщения: 56779
[b]Молодым без толку / Wasted on the Young[/b]


Перевод: Любительский (многоголосый закадровый) [RG.Paravozik]
Субтитры: отсутствуют
Формат: HDRip-AVC, MKV, H.264, AC3

Страна:Австралия

Режиссер: Бен С. Лукас
Жанр: триллер, драма
Продолжительность: 01:36:56
Год выпуска: 2010

В ролях: Оливер Экланд, Аделаида Клеменс, Алекс Расселл, Натан Коенен, Патрик Каллен, Джорджина Хэйг,Джеральдина Хаквилл, Тиджей Пауэр, Джессика Равнслей, Уилл Симпсони.

Описание: Австралийский студент вынужден действовать, когда группа «золотых мальчиков» из его школы, надругавшись и накачав наркотиками, оставляют умирать его лучшую подругу. Как не удивительно, но она возвращается ожив и начинает напоминать о том, что они сделали.



Видео: 1024x432 (2.35:1), 23.976 fps, AVC MPEG-4High@L4.1 ~1612 kbps avg, 0.152 bit/pixel
Аудио #1: русский48 kHz, AC3 Dolby Digital, 2/0 (L, R) ch, ~192 kbps avg [Любительский (многоголосый закадровый)]
Аудио #2: английский48 kHz, AC3 Dolby Digital, 3/2 (L,C,R,l,r) + LFE ch, ~384 kbps avg [оригинал]

Рип от:


General
Unique ID: 202133280039526527469128129168862386572 (0x9811742446C03C2CAA5346D3F6FC998C)
Complete name: F:\Рипы от дяди Васи\Molodym.bez.tolku.2010.L.HDRip.mkv
Format: Matroska
Format version: Version 2
File size: 1.48 GiB
Duration: 1h 36mn
Overall bit rate: 2 181 Kbps
Movie name: Wasted.on.the.young.S.I.D
Encoded date: UTC 2012-01-10 19:38:48
Writing application: mkvmerge v2.9.8 ('C'est le bon') built on Aug 13 2009 12:49:06
Writing library: libebml v0.7.7 + libmatroska v0.8.1

Video
ID: 1
Format: AVC
Format/Info: Advanced Video Codec
Format profile: High@L4.1
Format settings, CABAC: Yes
Format settings, ReFrames: 8 frames
Codec ID: V_MPEG4/ISO/AVC
Duration: 1h 36mn
Bit rate: 1 612 Kbps
Width: 1 024 pixels
Height: 432 pixels
Display aspect ratio: 2.35:1
Frame rate: 23.976 fps
Color space: YUV
Chroma subsampling: 4:2:0
Bit depth: 8 bits
Scan type: Progressive
Bits/(Pixel*Frame): 0.152
Stream size: 1.06 GiB (72%)
Writing library: x264 core 119 r2106 07efeb4
Encoding settings: cabac=1 / ref=8 / deblock=1:-1:-1 / analyse=0x3:0x111 / me=umh / subme=0 / psy=1 / psy_rd=1.00:0.10 / mixed_ref=1 / me_range=16 / chroma_me=1 / trellis=2 / 8x8dct=1 / cqm=0 / deadzone=21,11 / fast_pskip=0 / chroma_qp_offset=-1 / threads=6 / sliced_threads=0 / nr=0 / decimate=1 / interlaced=0 / bluray_compat=0 / constrained_intra=0 / bframes=3 / b_pyramid=2 / b_adapt=2 / b_bias=0 / direct=1 / weightb=1 / open_gop=0 / weightp=2 / keyint=250 / keyint_min=23 / scenecut=40 / intra_refresh=0 / rc_lookahead=40 / rc=abr / mbtree=1 / bitrate=1612 / ratetol=1.0 / qcomp=0.60 / qpmin=0 / qpmax=69 / qpstep=4 / ip_ratio=1.40 / aq=1:1.00
Language: English
Default: Yes
Forced: No

Audio #1
ID: 2
Format: AC-3
Format/Info: Audio Coding 3
Mode extension: CM (complete main)
Codec ID: A_AC3
Duration: 1h 36mn
Bit rate mode: Constant
Bit rate: 192 Kbps
Channel(s): 2 channels
Channel positions: Front: L R
Sampling rate: 48.0 KHz
Bit depth: 16 bits
Compression mode: Lossy
Stream size: 133 MiB (9%)
Title: Любительский многоголосый - RG.Paravozik
Language: Russian
Default: Yes
Forced: No

Audio #2
ID: 3
Format: AC-3
Format/Info: Audio Coding 3
Mode extension: CM (complete main)
Codec ID: A_AC3
Duration: 1h 36mn
Bit rate mode: Constant
Bit rate: 384 Kbps
Channel(s): 6 channels
Channel positions: Front: L C R, Side: L R, LFE
Sampling rate: 48.0 KHz
Bit depth: 16 bits
Compression mode: Lossy
Stream size: 266 MiB (18%)
Title: оригинал
Language: English
Default: No
Forced: No








Поделиться:




реклама партнёра


Вернуться к началу
 Профиль Отправить личное сообщение  
 
   Похожие торренты   Автор   Торрент   Размер 
В этой теме нет новых непрочитанных сообщений. FourPointOh - Young And Wasted [2014, Hard Rock,Female Vocal, MP3]

PriZraK

0 | 1

120 МБ

В этой теме нет новых непрочитанных сообщений. Wasted Land - Wasted Land [2013, Melodic Death Metal with Folk influences, MP3]

PriZraK

0 | 1

107.78 МБ

В этой теме нет новых непрочитанных сообщений. Мы – лучшие! / Vi ar bast! (Лукас Мудиссон) [Драма, Музыка, 2013] HDRip, Mvo

Dracon

2 | 3

1.46 ГБ

В этой теме нет новых непрочитанных сообщений. Молодой Мессия / The Young Messiah [драма, 2016] HDRip, Mvo

salma3

41 | 6

1.37 ГБ

В этой теме нет новых непрочитанных сообщений. Пока мы молоды / While We're Young (Ноа Баумбак) [драма, комедия, 2014] HDRip-AVC, dvo

Dracon

67 | 4

1.36 ГБ

В этой теме нет новых непрочитанных сообщений. Молодежь / Young Ones (Джейк Пэлтроу) [Фантастика, боевик, драма, 2014] HDRip, Mvo

Dracon

616 | 23

1.37 ГБ

В этой теме нет новых непрочитанных сообщений. Бедная богатая девочка / Young Adult [драма, комедия, 2011] HDRip, Dub [Лицензия]

salma3

78 | 8

1.44 ГБ


Начать новую тему Ответить на тему  [ 1 сообщение ] 




Для Мосгорсуда, Роскомнадзора и рекламодателей:: mosgorsud-torrent[собачка]yandex.ru