Торрент файл
скачать торрент магнет ссылка Добавлен: 20 янв 2012, 21:37
Размер: 1.5 ГБ
Сидеров: 12
Личеров: 5
Автор

СообщениеДобавлено: 20 янв 2012, 21:37 

Не в сети
Супермодератор
Аватара пользователя
Дата регистрации:
11 апр 2010, 18:10
Спасибо: 5802 / 7
Сообщения: 56779
[b]Большая игра / State of Play[/b]


Перевод: Профессиональный (полное дублирование)
Субтитры: отсутствуют
Формат: HDRip-AVC, MKV, H.264, AC3

Страна: США, Великобритания, Франция

Режиссер: Кевин МакДональд
Жанр: триллер, драма, криминал, детектив
Продолжительность: 02:07:02
Год выпуска: 2009

В ролях: Рассел Кроу, Бен Аффлек, Рэйчел МакАдамс, Хелен Миррен, Робин Райт Пенн, Джейсон Бейтман, Джеф Дэниелс, Гарри Дж. Ленникс, Джош Мостел.

Описание: Американский журналист Маккэффри расследует серию жестоких убийств. Одной из жертв становится любовница преуспевающего конгрессмена Коллинза, давнего друга Маккэффри. Улики открывают перед журналистом цепочку чудовищных заговоров, ведущих в высшие политические круги страны. Люди, с которыми ему придется иметь дело, ворочают миллиардами долларов и не привыкли, когда в их дела вмешиваются посторонние.



Видео: 1024x432 (2.35:1), 23.976 fps, AVC MPEG-4 High@L4.1 ~1306 kbps avg, 0.123 bit/pixel
Аудио: 48 kHz, AC3 Dolby Digital, 3/2 (L,C,R,l,r) + LFE ch, ~384 kbps avg

Рип от:


General
Unique ID: 192865213630198085723264210866225349744 (0x91187D3028CDCB7DBBA94CD56BB50470)
Complete name: F:\Рипы от папы Карло\State of Play.2009.D.HDRip.mkv
Format: Matroska
Format version: Version 2
File size: 1.50 GiB
Duration: 2h 7mn
Overall bit rate: 1 687 Kbps
Movie name: State.of.play.S.I.D
Encoded date: UTC 2012-01-15 19:04:24
Writing application: mkvmerge v2.9.8 ('C'est le bon') built on Aug 13 2009 12:49:06
Writing library: libebml v0.7.7 + libmatroska v0.8.1

Video
ID: 1
Format: AVC
Format/Info: Advanced Video Codec
Format profile: High@L4.1
Format settings, CABAC: Yes
Format settings, ReFrames: 8 frames
Codec ID: V_MPEG4/ISO/AVC
Duration: 2h 7mn
Bit rate: 1 306 Kbps
Width: 1 024 pixels
Height: 432 pixels
Display aspect ratio: 2.35:1
Frame rate: 23.976 fps
Color space: YUV
Chroma subsampling: 4:2:0
Bit depth: 8 bits
Scan type: Progressive
Bits/(Pixel*Frame): 0.123
Stream size: 1.13 GiB (75%)
Writing library: x264 core 119 r2106 07efeb4
Encoding settings: cabac=1 / ref=8 / deblock=1:-1:-1 / analyse=0x3:0x131 / me=umh / subme=0 / psy=1 / psy_rd=1.00:0.10 / mixed_ref=1 / me_range=16 / chroma_me=1 / trellis=2 / 8x8dct=1 / cqm=0 / deadzone=21,11 / fast_pskip=0 / chroma_qp_offset=-1 / threads=6 / sliced_threads=0 / nr=0 / decimate=1 / interlaced=0 / bluray_compat=0 / constrained_intra=0 / bframes=4 / b_pyramid=2 / b_adapt=2 / b_bias=0 / direct=1 / weightb=1 / open_gop=0 / weightp=2 / keyint=250 / keyint_min=23 / scenecut=40 / intra_refresh=0 / rc_lookahead=50 / rc=abr / mbtree=1 / bitrate=1306 / ratetol=1.0 / qcomp=0.60 / qpmin=0 / qpmax=69 / qpstep=4 / ip_ratio=1.40 / aq=1:1.00
Language: English
Default: Yes
Forced: No

Audio
ID: 2
Format: AC-3
Format/Info: Audio Coding 3
Mode extension: CM (complete main)
Codec ID: A_AC3
Duration: 2h 7mn
Bit rate mode: Constant
Bit rate: 384 Kbps
Channel(s): 6 channels
Channel positions: Front: L C R, Side: L R, LFE
Sampling rate: 48.0 KHz
Bit depth: 16 bits
Compression mode: Lossy
Stream size: 349 MiB (23%)
Title: дублирование
Language: Russian
Default: Yes
Forced: No








Поделиться:




реклама партнёра


Вернуться к началу
 Профиль Отправить личное сообщение  
 
   Похожие торренты   Автор   Торрент   Размер 
В этой теме нет новых непрочитанных сообщений. Большая игра / State of Play [драма, детектив, 2009] BDRip 720p, Dub+Sub

salma3

104 | 7

4.37 ГБ

В этой теме нет новых непрочитанных сообщений. Чёрное море / Black Sea (Кевин МакДональд) [Триллер, приключения, 2014] HDRip, Mvo [Лицензия]

Dracon

12 | 3

2.06 ГБ

В этой теме нет новых непрочитанных сообщений. Чёрное море /  Black Sea (Кевин МакДональд) [Триллер, приключения, 2014] HDRip, Mvo [Лицензия]

Dracon

520 | 22

1.46 ГБ

В этой теме нет новых непрочитанных сообщений. Игра по правилам / Fair Play [драма, спорт, 2014] HDRip, avo

Dracon

7 | 5

1.37 ГБ

В этой теме нет новых непрочитанных сообщений. Чёрное море / Black Sea (Кевин МакДональд) [Триллер, приключения, 2014] CAMRip, dub

Dracon

121 | 4

1.46 ГБ

В этой теме нет новых непрочитанных сообщений. Чёрное море / Black Sea (Кевин МакДональд) [Триллер, приключения, 2014] BDRip 720p, Mvo [Лицензия]

Dracon

129 | 4

5.6 ГБ

В этой теме нет новых непрочитанных сообщений. Чёрное море / Black Sea (Кевин МакДональд) [Триллер, приключения, 2014] BDRip 1080p, Mvo [Лицензия]

Dracon

20 | 4

8.71 ГБ


Начать новую тему Ответить на тему  [ 1 сообщение ] 




Для Мосгорсуда, Роскомнадзора и рекламодателей:: mosgorsud-torrent[собачка]yandex.ru