Торрент файл
скачать торрент магнет ссылка Добавлен: 16 янв 2012, 20:05
Размер: 1.45 ГБ
Сидеров: 69
Личеров: 6
Статус: (Dracon)
Автор

СообщениеДобавлено: 16 янв 2012, 20:05 

Не в сети
Зам. Админа
Аватара пользователя
Дата регистрации:
02 дек 2010, 12:39
Спасибо: 12460 / 214
Сообщения: 27968

Год выхода: 2011
Жанр: фантастика, боевик, семейный
Режиссер: Шон Леви / Shawn Levy
В ролях: Хью Джекман, Дакота Гойо, Эванджелин Лилли, Энтони Маки, Кевин Дюран, Хоуп Дэвис, Джеймс Ребхорн, Марко Руджери, Карл Йун, Ольга Фонда

О фильме:
События фильма происходят в будущем, где бокс запрещен за негуманностью и заменен боями 2000-фунтовых роботов, управляемых людьми. Бывший боксер, а теперь промоутер, переметнувшийся в Робобокс, решает, что наконец нашел своего чемпиона, когда ему попадается выбракованный, но очень способный робот. Одновременно на жизненном пути героя возникает 11-летний пацан, оказывающийся его сыном. И по мере того, как машина пробивает свой путь к вершине, обретшие друг друга отец и сын учатся дружить.

General
Unique ID : 172520345894743672959808223546821907884 (0x81CA35C3B48248E4BBE4FB91CA0915AC)
Complete name : E:DownloadsZhivaja.stal.-1.46.chopper887.mkv
Format : Matroska
File size : 1.45 GiB
Duration : 2h 6mn
Overall bit rate : 1 642 Kbps
Movie name : Zhivaja.stal.-1.46.chopper887
Encoded date : UTC 2012-01-12 18:51:00
Writing application : mkvmerge v4.8.0 ('I Got The...') сборка от May 24 2011 03:12:58
Writing library : libebml v1.2.0 + libmatroska v1.1.0

Video
ID : 1
Format : AVC
Format/Info : Advanced Video Codec
Format profile : High@L3.1
Format settings, CABAC : Yes
Format settings, ReFrames : 6 frames
Format settings, GOP : M=7, N=25
Codec ID : V_MPEG4/ISO/AVC
Duration : 2h 6mn
Bit rate : 1 256 Kbps
Width : 960 pixels
Height : 408 pixels
Display aspect ratio : 2.35:1
Frame rate : 23.976 fps
Color space : YUV
Chroma subsampling : 4:2:0
Bit depth : 8 bits
Scan type : Progressive
Bits/(Pixel*Frame) : 0.134
Stream size : 1.09 GiB (75%)
Title : Zhivaja.stal.-1.46.chopper887
Writing library : x264 core 116 r2074 2641b9e
Encoding settings : cabac=1 / ref=6 / deblock=1:-2:-1 / analyse=0x3:0x133 / me=umh / subme=11 / psy=1 / psy_rd=0.95:0.05 / mixed_ref=1 / me_range=32 / chroma_me=1 / trellis=2 / 8x8dct=1 / cqm=0 / deadzone=21,11 / fast_pskip=0 / chroma_qp_offset=-3 / threads=12 / sliced_threads=0 / nr=0 / decimate=1 / interlaced=0 / bluray_compat=0 / constrained_intra=0 / bframes=6 / b_pyramid=2 / b_adapt=1 / b_bias=0 / direct=3 / weightb=1 / open_gop=0 / weightp=2 / keyint=250 / keyint_min=23 / scenecut=40 / intra_refresh=0 / rc_lookahead=80 / rc=2pass / mbtree=1 / bitrate=1256 / ratetol=1.0 / qcomp=0.60 / qpmin=0 / qpmax=69 / qpstep=4 / cplxblur=20.0 / qblur=0.5 / ip_ratio=1.40 / aq=1:1.00
Language : English

Audio
ID : 2
Format : AC-3
Format/Info : Audio Coding 3
Mode extension : CM (complete main)
Codec ID : A_AC3
Duration : 2h 6mn
Bit rate mode : Constant
Bit rate : 384 Kbps
Channel(s) : 6 channels
Channel positions : Front: L C R, Side: L R, LFE
Sampling rate : 48.0 KHz
Bit depth : 16 bits
Compression mode : Lossy
Stream size : 348 MiB (23%)


Страна: США, Индия
Продолжительность: 02:06:50
Перевод: Профессиональный (полное дублирование)

Кодек: MKV
Качество: Качество видео: BDRip-AVC(Zhivaja.stal.2011.x264.Blu-Ray.Remux.1080p.mkv)
Видео: 960x408 (2.35:1), 23.976 fps, AVC, ~1256 Kbps, 0.134 bits/pixe
Звук: 48 kHz, AC3 Dolby Digital, 3/2 (L,C,R,l,r) + LFE ch, ~384 kbps
Субтитры: нет

Семпл





реклама партнёра


Вернуться к началу
 Профиль  
 
   Похожие торренты   Автор   Торрент   Размер 
В этой теме нет новых непрочитанных сообщений. Мистер Сталь / Сталь / Steel [фантастика, боевик, криминал, 1997] DVDRip, Dub+Mvo

salma3

138 | 9

1.46 ГБ

В этой теме нет новых непрочитанных сообщений. Голубая сталь / Вороненая сталь / Blue Steel [Боевик, триллер, драма, криминал, 1989] BDRip 720p, Dvo+Avo

salma3

15 | 3

4.37 ГБ

В этой теме нет новых непрочитанных сообщений. Голубая сталь / Blue Steel [Триллер, детектив, боевик, драма, 1989] BDRip-AVC, Mvo+Dvo+Avo+Sub

salma3

31 | 4

2.72 ГБ

В этой теме нет новых непрочитанных сообщений. Real Steel - Real Steel [1991, Hard'n'Heavy, MP3]

PriZraK

0 | 1

73.91 МБ

В этой теме нет новых непрочитанных сообщений. Огненное кольцо 2: Огонь и сталь / Ring of Fire II: Blood and Steel [Боевик, драма, 1993] DVDRip, Mvo

salma3

17 | 1

1.37 ГБ

В этой теме нет новых непрочитанных сообщений. Ржавая сталь / Rusty Steel [приключения, 2013] SATRip, Dvo [НТВ+]

salma3

41 | 2

1.36 ГБ

В этой теме нет новых непрочитанных сообщений. Ржавая сталь / Rusty Steel [приключения, 2013] HDTVRip 720p, Dvo [НТВ+]

Dracon

251 | 12

2.48 ГБ


Начать новую тему Ответить на тему  [ 1 сообщение ] 




Для Мосгорсуда, Роскомнадзора и рекламодателей:: mosgorsud-torrent[собачка]yandex.ru