Торрент файл
скачать торрент магнет ссылка Добавлен: 16 янв 2012, 00:25
Размер: 2.17 ГБ
Сидеров: 10
Личеров: 10
Автор

СообщениеДобавлено: 16 янв 2012, 00:25 

Не в сети
Супермодератор
Аватара пользователя
Дата регистрации:
11 апр 2010, 18:10
Спасибо: 5798 / 7
Сообщения: 56779
Пробуждающий лес / Wake Wood

Перевод: Любительский (двухголосый), cубтитры: отсутствуют
Формат: HDRip-AVC, MKV, H.264, AC3
Страна: Великобритания, Ирландия
Режиссер: Дэвид Китинг
Жанр: ужасы, триллер, драма
Продолжительность: 01:25:55
Год выпуска: 2011

В ролях: Ева Бертистл, Элла Коннолли, Амелия Краули, Эйдан Джиллен, Дэн Гордон, Рут МакКейб, Тимоти Сполл.

Описание: Родителям девочки, которая была убита дикой собакой, дается возможность провести три дня с их умершей дочери.



Видео: 1024x432(2,35:1),25,000 fps, AVC MPEG4 (x264) High@L4.1, ~2705kbps avg,0.245 bit/pixel
Аудио#1: Русский:48 kHz, AC-3, 6 ch (Front: L C R, Side: L R, LFE),~448 kbps[Любительский (двухголосый)]
Аудио#2: Английский:48 kHz, AC-3, 6 ch (Front: L C R, Side: L R, LFE),~448 kbps[Оригинал]

General
Unique ID: 190488493692154964154449838407655272193 (0x8F4EBFD917444AA696C41B763D46AF01)
Complete name: C:\Documents and Settings\Admin.MICROSOF-42B712\Мои документы\Downloads\Новинки\Probuzhdaushii.les.mkv
Format: Matroska
File size: 2.17 GiB
Duration: 1h 26mn
Overall bit rate: 3 589 Kbps
Movie name: avproh
Encoded date: UTC 2011-05-10 18:54:30
Writing application: mkvmerge v4.7.0 ('Just Like You Imagined') сборка от Apr 21 2011 01:13:14
Writing library: libebml v1.2.0 + libmatroska v1.1.0

Video
ID: 1
Format: AVC
Format/Info: Advanced Video Codec
Format profile: High@L4.1
Format settings, CABAC: Yes
Format settings, ReFrames: 11 frames
Codec ID: V_MPEG4/ISO/AVC
Duration: 1h 26mn
Bit rate: 2 705 Kbps
Width: 1 024 pixels
Height: 432 pixels
Display aspect ratio: 2.35:1
Frame rate: 25.000 fps
Color space: YUV
Chroma subsampling: 4:2:0
Bit depth: 8 bits
Scan type: Progressive
Bits/(Pixel*Frame): 0.245
Stream size: 1.59 GiB (73%)
Writing library: x264 core 114 r1913 5fd3dce
Encoding settings: cabac=1 / ref=11 / deblock=1:-2:-1 / analyse=0x3:0x113 / me=umh / subme=9 / psy=1 / psy_rd=1.00:0.10 / mixed_ref=1 / me_range=32 / chroma_me=1 / trellis=2 / 8x8dct=1 / cqm=0 / deadzone=21,11 / fast_pskip=1 / chroma_qp_offset=-3 / threads=9 / sliced_threads=0 / nr=0 / decimate=1 / interlaced=0 / constrained_intra=0 / bframes=10 / b_pyramid=2 / b_adapt=2 / b_bias=0 / direct=3 / weightb=1 / open_gop=0 / weightp=0 / keyint=250 / keyint_min=25 / scenecut=40 / intra_refresh=0 / rc_lookahead=80 / rc=2pass / mbtree=1 / bitrate=2705 / ratetol=1.0 / qcomp=0.60 / qpmin=0 / qpmax=69 / qpstep=4 / cplxblur=20.0 / qblur=0.5 / ip_ratio=1.40 / aq=2:0.90
Language: English

Audio #1
ID: 2
Format: AC-3
Format/Info: Audio Coding 3
Mode extension: CM (complete main)
Codec ID: A_AC3
Duration: 1h 26mn
Bit rate mode: Constant
Bit rate: 448 Kbps
Channel(s): 6 channels
Channel positions: Front: L C R, Side: L R, LFE
Sampling rate: 48.0 KHz
Bit depth: 16 bits
Compression mode: Lossy
Stream size: 278 MiB (12%)
Language: Russian

Audio #2
ID: 3
Format: AC-3
Format/Info: Audio Coding 3
Mode extension: CM (complete main)
Codec ID: A_AC3
Duration: 1h 26mn
Bit rate mode: Constant
Bit rate: 448 Kbps
Channel(s): 6 channels
Channel positions: Front: L C R, Side: L R, LFE
Sampling rate: 48.0 KHz
Bit depth: 16 bits
Compression mode: Lossy
Stream size: 278 MiB (12%)
Language: English

Text
ID: 4
Format: UTF-8
Codec ID: S_TEXT/UTF8
Codec ID/Info: UTF-8 Plain Text
Language: Dutch







Поделиться:




реклама партнёра


Вернуться к началу
 Профиль Отправить личное сообщение  
 
   Похожие торренты   Автор   Торрент   Размер 
В этой теме нет новых непрочитанных сообщений. Сомния / Before I Wake [ужасы, фэнтези, триллер, драма, 2016] BDRip-AVC, Dub [iTunes]

salma3

115 | 39

2.14 ГБ

В этой теме нет новых непрочитанных сообщений. Сомния / Before I Wake [ужасы, фэнтези, триллер, драма, 2016] BDRip-AVC, Dub [iTunes]

salma3

320 | 64

1.42 ГБ

В этой теме нет новых непрочитанных сообщений. Сомния / Before I Wake [ужасы, мистика, триллер, драма, детектив, 2016] WEB-DLRip, Dub [чистый звук]

salma3

2565 | 340

1.37 ГБ

В этой теме нет новых непрочитанных сообщений. The Le Wood Anal Hazing Crew 5 / Le Wood Компания Анального Наказания 5 (Le' Wood Evil Angel) [2013 г., Gonzo, Anal, 540p, WEB-DL]

friizze

36 | 539

1.85 ГБ

В этой теме нет новых непрочитанных сообщений. Гризли / Grizzly (Дэвид Хэкл) [ужасы, боевик, триллер, 2014] HDRip, dvo+sub

Dracon

132 | 4

1.46 ГБ

В этой теме нет новых непрочитанных сообщений. Резня в Рэдвуде / The Redwood Massacre (Дэвид Райан Кит) [ужасы, триллер, 2014] HDRip, Avo

Dracon

2 | 0

1.37 ГБ

В этой теме нет новых непрочитанных сообщений. Лемон Три Пасседж / Lemon Tree Passage (Дэвид Кэмпбелл) [Триллер, Ужасы, 2013] HDRip, dvo

Dracon

7 | 2

1.37 ГБ


Начать новую тему Ответить на тему  [ 1 сообщение ] 




Для Мосгорсуда, Роскомнадзора и рекламодателей:: mosgorsud-torrent[собачка]yandex.ru