Торрент файл
скачать торрент магнет ссылка Добавлен: 16 янв 2012, 00:22
Размер: 1.9 ГБ
Сидеров: 64
Личеров: 7
Автор

СообщениеДобавлено: 16 янв 2012, 00:22 

Не в сети
Супермодератор
Аватара пользователя
Дата регистрации:
11 апр 2010, 18:10
Спасибо: 5799 / 7
Сообщения: 56779
Затаившиеся / Hidden



Перевод: Профессиональный (полное дублирование), cубтитры: отсутствуют
Формат: HDRip-AVC, MKV, H.264, AC3
Страна: Канада, Италия
Режиссер: Джек Фрост, Антуан Томас
Жанр: ужасы, триллер
Продолжительность: 01:21:19
Год выпуска: 2011

В ролях: Шон Клемент, Симонетта Солдер, Джордан Хэйес, Джейсон Бликер, Бьянка Мерджел, Девон Бостик, Эллиотт Ларсон-Гилмор, Аллан Колмэн, Кристина Розато

Описание: Компания молодых людей отправляется на выходные в опустевший монастырь, где некогда располагался загадочный медицинский центр для людей с тяжелыми зависимостями. Вскоре выясняется, что над пациентами тайно проводились бесчеловечные эксперименты, в результате которых изгнанные из людей пороки никуда не исчезли, а затаились в стенах древнего здания и ждут своего часа. Они переполнены жаждой мести и уже никого не выпустят наружу...



Видео: 1024 x 576 (1.77, 23.976 fps, AVC, х264, High@L4.1, ~ 2 900 Kbps Kbps, 0.205 bit/pixel
Аудио: 48 kHz, AC3 Dolby Digital, 3/2 (L,C,R,l,r) + LFE ch, ~448 kbps

Релиз-Группа

Рип: jeenart
General
Unique ID: 172319957748176771831700952404616279630 (0x81A39DDDB5C0B5A6BAD1FED53317F64E)
Complete name: E:\РЕЛИЗЫ\Все релизы 16\hidden_[tfile.ru].mkv
Format: Matroska
File size: 1.90 GiB
Duration: 1h 21mn
Overall bit rate: 3 350 Kbps
Encoded date: UTC 2011-05-25 00:17:25
Writing application: mkvmerge v4.6.0 ('Still Crazy After All These Years') сборка от Apr1 2011 21:01:49
Writing library: libebml v1.2.0 + libmatroska v1.1.0

Video
ID: 1
Format: AVC
Format/Info: Advanced Video Codec
Format profile: High@L4.1
Format settings, CABAC: Yes
Format settings, ReFrames: 4 frames
Codec ID: V_MPEG4/ISO/AVC
Duration: 1h 21mn
Bit rate: 2 900 Kbps
Width: 1 024 pixels
Height: 576 pixels
Display aspect ratio: 16:9
Frame rate: 23.976 fps
Color space: YUV
Chroma subsampling: 4:2:0
Bit depth: 8 bits
Scan type: Progressive
Bits/(Pixel*Frame): 0.205
Stream size: 1.61 GiB (85%)
Writing library: x264 core 115 r1937 aa21558
Encoding settings: cabac=1 / ref=3 / deblock=1:-1:-1 / analyse=0x3:0x113 / me=hex / subme=7 / psy=1 / psy_rd=1.00:0.10 / mixed_ref=1 / me_range=16 / chroma_me=1 / trellis=1 / 8x8dct=1 / cqm=0 / deadzone=21,11 / fast_pskip=1 / chroma_qp_offset=-3 / threads=6 / sliced_threads=0 / nr=0 / decimate=1 / interlaced=0 / bluray_compat=0 / constrained_intra=0 / bframes=3 / b_pyramid=2 / b_adapt=1 / b_bias=0 / direct=3 / weightb=1 / open_gop=0 / weightp=2 / keyint=250 / keyint_min=23 / scenecut=40 / intra_refresh=0 / rc_lookahead=40 / rc=2pass / mbtree=1 / bitrate=2900 / ratetol=1.0 / qcomp=0.60 / qpmin=0 / qpmax=69 / qpstep=4 / cplxblur=20.0 / qblur=0.5 / ip_ratio=1.40 / aq=1:1.00

Audio
ID: 2
Format: AC-3
Format/Info: Audio Coding 3
Mode extension: CM (complete main)
Codec ID: A_AC3
Duration: 1h 21mn
Bit rate mode: Constant
Bit rate: 448 Kbps
Channel(s): 6 channels
Channel positions: Front: L C R, Side: L R, LFE
Sampling rate: 48.0 KHz
Bit depth: 16 bits
Compression mode: Lossy
Stream size: 261 MiB (13%)















Поделиться:




реклама партнёра


Вернуться к началу
 Профиль Отправить личное сообщение  
 
   Похожие торренты   Автор   Торрент   Размер 
В этой теме нет новых непрочитанных сообщений. Джек возвращается домой / Jack Goes Home [ужасы, триллер, драма, 2016] HDRip, Avo

salma3

181 | 356

1.43 ГБ

В этой теме нет новых непрочитанных сообщений. Тьма была ночью / Dark Was the Night (Джек Хеллер) [ужасы, триллер, драма, 2014] HDRip, mvo

Dracon

301 | 40

1.46 ГБ

В этой теме нет новых непрочитанных сообщений. Опасный Джек / Ужас в больнице / Hazard Jack [ужасы, 2014] HDRip, Avo

salma3

392 | 18

1.37 ГБ

В этой теме нет новых непрочитанных сообщений. Левша / Southpaw (Антуан Фукуа) [Драма, спорт, боевик, триллер, 2015] HDRip, Dub [iTunes]

Dracon

1787 | 113

1.37 ГБ

В этой теме нет новых непрочитанных сообщений. Левша / Southpaw (Антуан Фукуа) [Драма, спорт, боевик, триллер, 2015] HDRip, Dub [iTunes]

Dracon

259 | 4

2.05 ГБ

В этой теме нет новых непрочитанных сообщений. Под псевдонимом: Джек Стронг / Джек Стронг / Jack Strong [боевик, драма, криминал, детектив, биография, 2014] HDRip, Avo

salma3

269 | 6

1.37 ГБ

В этой теме нет новых непрочитанных сообщений. Колодец / The Well (Томас С. Хэммок) [Боевик, триллер, ужасы, 2014] WEB-DLRip, avo

Dracon

1666 | 45

1.38 ГБ


Начать новую тему Ответить на тему  [ 1 сообщение ] 




Для Мосгорсуда, Роскомнадзора и рекламодателей:: mosgorsud-torrent[собачка]yandex.ru