Торрент файл
скачать торрент магнет ссылка Добавлен: 16 янв 2012, 00:20
Размер: 1.46 ГБ
Сидеров: 40
Личеров: 13
Автор

СообщениеДобавлено: 16 янв 2012, 00:20 

Не в сети
Супермодератор
Аватара пользователя
Дата регистрации:
11 апр 2010, 18:10
Спасибо: 5960 / 7
Сообщения: 56765
Убойные каникулы / Tucker & Dale vs Evil

Перевод: Профессиональный (полное дублирование), cубтитры: отсутствуют
Формат: HDRip-AVC, MKV, H.264, AC3
Страна: Канада
Режиссер: Эли Крэйг
Жанр: ужасы, комедия
Продолжительность: 01:28:34
Год выпуска: 2010

В ролях: Тайлер Лэбин, Алан Тьюдик, Катрина Боуден, Джесси Мосс, Филип Грэйнджер, Брэндон Джей МакЛарен, Кристи Лэйн, Челан Симмонс, Трэвис Нельсон, Алекс Арсено

Описание: Группа студентов колледжа отправляется за город, чтобы вовсю оторваться на выходных: попить пивка, поплавать в озере и подышать чистым лесным воздухом. Но уже в первый день они сталкиваются с неотесанными фермерами Такером и Дэйлом, также решившими как следует оттянуться на природе. Приняв этих диковатых, но, в сущности, симпатичных ребят за «злобных местных», горожане решают дать деревенщине жесткий отпор. Но с каждым их шагом становится только хуже…



Видео: 1024x436 (2.35:1); 23.976 fps; V_MPEG4/ISO/AVC (High@L4.1),~1968 kbps,0.184 bit/pixel
Аудио: 48 KHz;AC3 Dolby Digital; 3/2 (L,C,R,l,r) + LFE ch;~ 384 kbps


General
Unique ID: 223440065679771153722454899486606527231 (0xA818FDC798B9D6C59058046DE4588AFF)
Complete name: C:\Documents and Settings\Admin.MICROSOF-42B712\Мои документы\Downloads\Новинки\Ubojnye.kanikuly.mkv
Format: Matroska
File size: 1.46 GiB
Duration: 1h 28mn
Overall bit rate: 2 353 Kbps
Movie name: Ubojnye kanikuly / 2010 / Release by Vaippp / OpenSharing Team
Encoded date: UTC 2011-05-04 19:04:10
Writing application: mkvmerge v4.7.0 ('Just Like You Imagined') сборка от Apr 21 2011 01:13:14
Writing library: libebml v1.2.0 + libmatroska v1.1.0

Video
ID: 1
Format: AVC
Format/Info: Advanced Video Codec
Format profile: High@L4.1
Format settings, CABAC: Yes
Format settings, ReFrames: 9 frames
Codec ID: V_MPEG4/ISO/AVC
Duration: 1h 28mn
Bit rate: 1 968 Kbps
Width: 1 024 pixels
Height: 436 pixels
Display aspect ratio: 2.35:1
Frame rate: 23.976 fps
Color space: YUV
Chroma subsampling: 4:2:0
Bit depth: 8 bits
Scan type: Progressive
Bits/(Pixel*Frame): 0.184
Stream size: 1.19 GiB (82%)
Title: HDRip by Vaippp
Writing library: x264 core 114 r1913 5fd3dce
Encoding settings: cabac=1 / ref=9 / deblock=1:-2:-1 / analyse=0x3:0x133 / me=umh / subme=9 / psy=1 / psy_rd=1.00:0.15 / mixed_ref=1 / me_range=32 / chroma_me=1 / trellis=2 / 8x8dct=1 / cqm=0 / deadzone=21,11 / fast_pskip=0 / chroma_qp_offset=-3 / threads=12 / sliced_threads=0 / nr=0 / decimate=1 / interlaced=0 / constrained_intra=0 / bframes=8 / b_pyramid=2 / b_adapt=2 / b_bias=0 / direct=3 / weightb=1 / open_gop=0 / weightp=2 / keyint=250 / keyint_min=23 / scenecut=40 / intra_refresh=0 / rc_lookahead=40 / rc=2pass / mbtree=0 / bitrate=1968 / ratetol=1.0 / qcomp=0.70 / qpmin=10 / qpmax=51 / qpstep=4 / cplxblur=20.0 / qblur=0.5 / vbv_maxrate=50000 / vbv_bufsize=62500 / nal_hrd=none / ip_ratio=1.40 / pb_ratio=1.30 / aq=1:1.00 / zones=119295,127416,q=35
Language: English

Audio
ID: 2
Format: AC-3
Format/Info: Audio Coding 3
Mode extension: CM (complete main)
Codec ID: A_AC3
Duration: 1h 28mn
Bit rate mode: Constant
Bit rate: 384 Kbps
Channel(s): 6 channels
Channel positions: Front: L C R, Side: L R, LFE
Sampling rate: 48.0 KHz
Bit depth: 16 bits
Compression mode: Lossy
Stream size: 243 MiB (16%)
Title: DUB R5
Language: Russian







Поделиться:




реклама партнёра


Вернуться к началу
 Профиль Отправить личное сообщение  
 
   Похожие торренты   Автор   Торрент   Размер 
В этой теме нет новых непрочитанных сообщений. Убойные каникулы / Tucker & Dale vs Evil [ужасы, комедия, 2010] BDRip 1080p, Dub

salma3

60 | 12

4.37 ГБ

В этой теме нет новых непрочитанных сообщений. Ещё одно зло / Another Evil [ужасы, комедия, 2016] HDRip, Mvo

salma3

105 | 27

1.37 ГБ

В этой теме нет новых непрочитанных сообщений. Последние каникулы 2 / Cabin Fever 2: Spring Fever [ужасы, триллер, комедия, 2009] HDRip, Mvo

salma3

126 | 20

701.67 МБ

В этой теме нет новых непрочитанных сообщений. Идеальные каникулы / A Perfect Vacation / Awaken (Марк Аткинс) [ужасы, боевик, триллер, 2015] HDRip, Mvo

Dracon

636 | 56

1.37 ГБ

В этой теме нет новых непрочитанных сообщений. Близнецы / The Skeleton Twins (Крэйг Джонсон) [Драма, Комедия, 2014] HDRip, avo

Dracon

17 | 4

1.45 ГБ

В этой теме нет новых непрочитанных сообщений. Зло в нас / The Evil in Us [ужасы, 2016] HDRip, Avo

salma3

563 | 73

740.63 МБ

В этой теме нет новых непрочитанных сообщений. Близнецы / The Skeleton Twins (Крэйг Джонсон) [Драма, Комедия, 2014] HDRip, Mvo [iTunes]

Dracon

4 | 3

1.37 ГБ


Начать новую тему Ответить на тему  [ 1 сообщение ] 




Для Мосгорсуда, Роскомнадзора и рекламодателей:: mosgorsud-torrent[собачка]yandex.ru