Торрент файл
скачать торрент магнет ссылка Добавлен: 16 янв 2012, 00:06
Размер: 1.45 ГБ
Сидеров: 177
Личеров: 11
Автор

СообщениеДобавлено: 16 янв 2012, 00:06 

Не в сети
Супермодератор
Аватара пользователя
Дата регистрации:
11 апр 2010, 18:10
Спасибо: 5960 / 7
Сообщения: 56765
Треугольник / Triangle


Перевод: Профессиональный (многоголосый, закадровый), cубтитры: отсутствуют
Формат: HDRip-AVC, MKV, H.264, AC3
Страна: Великобритания, Австралия
Режиссер: Кристофер Смит
Жанр: ужасы, триллер, драма, детектив
Продолжительность: 01:38:51
Год выпуска: 2009

В ролях: Мелисса Джордж, Джошуа МакИвор, Джек Тейлор, Майкл Дорман, Генри Никсон, Рейчал Карпани, Эмма Ланг, Лайам Хемсворт

Описание: Грег приглашает свою подругу Джесс, молодую мать-одиночку, провести день на яхте в кругу своих друзей. Начавшийся сильный шторм переворачивает судно, и оставшиеся в живых вынуждены дожидаться помощи, цепляясь за перевернутый корпус яхты. Спасение приходит в виде огромного океанического лайнера. Судно оказывается пустым, часы на борту остановились. Но они не одни на этом огромном корабле - за ними кто-то неустанно следит...



Видео: 960 x 408 (2:35:1), 24.000 fps, AVC, х264, High@L4.1, ~ 1912 Kbps, 0.203 bit/pixel
Аудио: 48 kHz, AC3 Dolby Digital, 2/0 (L,R) ch, ~192 kbps


Рип: jeenart

General
Unique ID: 201717984447385040013644195843881674448 (0x97C1787CF7E6112E914D896F7A6DA6D0)
Complete name: F:\Мои релизы\Все релизы 10\treugolnik_[tfile.ru].mkv
Format: Matroska
File size: 1.45 GiB
Duration: 1h 38mn
Overall bit rate: 2 106 Kbps
Encoded date: UTC 2011-07-21 09:22:13
Writing application: mkvmerge v4.6.0 ('Still Crazy After All These Years') сборка от Apr1 2011 21:01:49
Writing library: libebml v1.2.0 + libmatroska v1.1.0

Video
ID: 1
Format: AVC
Format/Info: Advanced Video Codec
Format profile: High@L4.1
Format settings, CABAC: Yes
Format settings, ReFrames: 8 frames
Codec ID: V_MPEG4/ISO/AVC
Duration: 1h 38mn
Bit rate: 1 912 Kbps
Width: 960 pixels
Height: 408 pixels
Display aspect ratio: 2.35:1
Frame rate: 24.000 fps
Color space: YUV
Chroma subsampling: 4:2:0
Bit depth: 8 bits
Scan type: Progressive
Bits/(Pixel*Frame): 0.203
Stream size: 1.29 GiB (89%)
Writing library: x264 core 115 r1937 aa21558
Encoding settings: cabac=1 / ref=8 / deblock=1:-1:-1 / analyse=0x3:0x133 / me=umh / subme=9 / psy=1 / psy_rd=1.00:0.10 / mixed_ref=1 / me_range=16 / chroma_me=1 / trellis=2 / 8x8dct=1 / cqm=0 / deadzone=21,11 / fast_pskip=1 / chroma_qp_offset=-3 / threads=6 / sliced_threads=0 / nr=0 / decimate=1 / interlaced=0 / bluray_compat=0 / constrained_intra=0 / bframes=3 / b_pyramid=2 / b_adapt=2 / b_bias=0 / direct=3 / weightb=1 / open_gop=0 / weightp=2 / keyint=250 / keyint_min=23 / scenecut=40 / intra_refresh=0 / rc_lookahead=60 / rc=2pass / mbtree=1 / bitrate=1912 / ratetol=1.0 / qcomp=0.60 / qpmin=0 / qpmax=69 / qpstep=4 / cplxblur=20.0 / qblur=0.5 / ip_ratio=1.40 / aq=1:1.00

Audio
ID: 2
Format: AC-3
Format/Info: Audio Coding 3
Mode extension: CM (complete main)
Codec ID: A_AC3
Duration: 1h 38mn
Bit rate mode: Constant
Bit rate: 192 Kbps
Channel(s): 2 channels
Channel positions: Front: L R
Sampling rate: 48.0 KHz
Bit depth: 16 bits
Compression mode: Lossy
Stream size: 136 MiB (9%)






















Поделиться:




реклама партнёра


Вернуться к началу
 Профиль Отправить личное сообщение  
 
   Похожие торренты   Автор   Торрент   Размер 
В этой теме нет новых непрочитанных сообщений. Треугольник / Triangle [триллер, ужасы, детектив, 2009] HDRip-AVC, Mvo

salma3

48 | 44

1.45 ГБ

В этой теме нет новых непрочитанных сообщений. Треугольник / Triangle [детектив, триллер, ужасы, 2009] BDRip-AVC, Dvo

salma3

100 | 12

744.84 МБ

В этой теме нет новых непрочитанных сообщений. Треугольник / The Triangle [ужасы, детектив, 2016] WEB-DLRip, Mvo

salma3

379 | 72

1.37 ГБ

В этой теме нет новых непрочитанных сообщений. Треугольник / The Triangle [ужасы, детектив, 2016] WEB-DLRip 720p, Mvo

salma3

134 | 33

2.78 ГБ

В этой теме нет новых непрочитанных сообщений. Железный треугольник / The Iron Triangle [драма, военный, 1989] DVDRip, Dvo

salma3

27 | 12

1.45 ГБ

В этой теме нет новых непрочитанных сообщений. Треугольник / Triangle / Tie saam gok [боевик, драма, приключения, 2007] BDRemux 1080p, Dvo+Avo

salma3

11 | 24

26.22 ГБ

В этой теме нет новых непрочитанных сообщений. Бермудский треугольник / The Bermuda Triangle [мистика, 1978] DVDRip, Mvo

salma3

254 | 14

1.36 ГБ


Начать новую тему Ответить на тему  [ 1 сообщение ] 




Для Мосгорсуда, Роскомнадзора и рекламодателей:: mosgorsud-torrent[собачка]yandex.ru