Торрент файл
скачать торрент магнет ссылка Добавлен: 16 янв 2012, 00:06
Размер: 1.41 ГБ
Сидеров: 19
Личеров: 6
Автор

СообщениеДобавлено: 16 янв 2012, 00:06 

Не в сети
Супермодератор
Аватара пользователя
Дата регистрации:
11 апр 2010, 18:10
Спасибо: 5801 / 7
Сообщения: 56779
Один пропущенный звонок / One Missed Call


Перевод: Профессиональный (полное дублирование), cубтитры: отсутствуют
Формат: HDRip-AVC, MKV, H.264, AC3
Страна: США, Германия, Япония
Режиссер: Эрик Валетт
Жанр: ужасы, триллер, детектив
Продолжительность: 01:26:52
Год выпуска: 2008

В ролях: Эдвард Бернс, Шаннин Соссамон, Азура Скай, Ана Клаудиа Таланкон, Рэй Уайз, Рода Гриффис, Маргарет Чо, Джессика Браун, Роберт Кэннон, Джонни Льюис, Дэвид Лоу, Мелани МакКаллоф, Амбер Уоллес, Стив Уоррен

Описание: Иногда на мобильный телефон поступают странные звонки. Голос в трубке — ваш собственный, но все что вы слышите, это жуткий предсмертный вопль. Теперь вы знаете время и обстоятельства вашей гибели. Она случится ровно через три дня.



Видео: 1024 x 576 (1:78:1), 23.976 fps, AVC, х264, High@L4.1, ~ 1499 Kbps, 0.106 bit/pixel
Аудио #1: русский 48 kHz, AC3 Dolby Digital, 3/2 (L,C,R,l,r) + LFE ch, ~384 kbps [Профессиональный (полное дублирование)]
Аудио #2: английский 48 kHz, AC3 Dolby Digital, 3/2 (L,C,R,l,r) + LFE ch, ~448 kbps [Оригинал]

Релиз от:


General
Unique ID: 185916871895780729124450725525323372309 (0x8BDE497DC0C6ADDABBC787439A29D715)
Complete name: F:\Мои релизы\Все релизы 10\odin_propuchenniy_zvonok_[tfile.ru].mkv
Format: Matroska
File size: 1.41 GiB
Duration: 1h 26mn
Overall bit rate: 2 331 Kbps
Movie name: NovaLan (Vladislav71)
Encoded date: UTC 2011-07-22 18:00:59
Writing application: mkvmerge v4.0.0 ('The Stars were mine') сборка от Jun6 2010 16:18:42
Writing library: libebml v1.0.0 + libmatroska v1.0.0

Video
ID: 1
Format: AVC
Format/Info: Advanced Video Codec
Format profile: High@L4.1
Format settings, CABAC: Yes
Format settings, ReFrames: 8 frames
Codec ID: V_MPEG4/ISO/AVC
Duration: 1h 26mn
Bit rate: 1 499 Kbps
Width: 1 024 pixels
Height: 576 pixels
Display aspect ratio: 16:9
Frame rate: 23.976 fps
Color space: YUV
Chroma subsampling: 4:2:0
Bit depth: 8 bits
Scan type: Progressive
Bits/(Pixel*Frame): 0.106
Stream size: 902 MiB (62%)
Writing library: x264 core 114 r1924 08d04a4
Encoding settings: cabac=1 / ref=8 / deblock=1:-2:-2 / analyse=0x3:0x133 / me=umh / subme=10 / psy=1 / psy_rd=1.00:0.00 / mixed_ref=1 / me_range=48 / chroma_me=1 / trellis=2 / 8x8dct=1 / cqm=0 / deadzone=21,11 / fast_pskip=0 / chroma_qp_offset=-2 / threads=3 / sliced_threads=0 / nr=0 / decimate=1 / interlaced=0 / constrained_intra=0 / bframes=8 / b_pyramid=2 / b_adapt=2 / b_bias=0 / direct=3 / weightb=1 / open_gop=0 / weightp=2 / keyint=250 / keyint_min=23 / scenecut=40 / intra_refresh=0 / rc=2pass / mbtree=0 / bitrate=1499 / ratetol=1.0 / qcomp=0.60 / qpmin=10 / qpmax=51 / qpstep=4 / cplxblur=20.0 / qblur=0.5 / ip_ratio=1.40 / pb_ratio=1.30 / aq=2:1.00
Language: English

Audio #1
ID: 2
Format: AC-3
Format/Info: Audio Coding 3
Mode extension: CM (complete main)
Codec ID: A_AC3
Duration: 1h 26mn
Bit rate mode: Constant
Bit rate: 384 Kbps
Channel(s): 6 channels
Channel positions: Front: L C R, Side: L R, LFE
Sampling rate: 48.0 KHz
Bit depth: 16 bits
Compression mode: Lossy
Stream size: 239 MiB (16%)
Language: Russian

Audio #2
ID: 3
Format: AC-3
Format/Info: Audio Coding 3
Mode extension: CM (complete main)
Codec ID: A_AC3
Duration: 1h 26mn
Bit rate mode: Constant
Bit rate: 448 Kbps
Channel(s): 6 channels
Channel positions: Front: L C R, Side: L R, LFE
Sampling rate: 48.0 KHz
Bit depth: 16 bits
Compression mode: Lossy
Stream size: 278 MiB (19%)
Language: English
















Поделиться:




реклама партнёра


Вернуться к началу
 Профиль Отправить личное сообщение  
 
   Похожие торренты   Автор   Торрент   Размер 
В этой теме нет новых непрочитанных сообщений. Звонок / Ring / Ringu [ужасы, триллер, детектив, 1998] HDRip, Mvo

salma3

9 | 2

1.45 ГБ

В этой теме нет новых непрочитанных сообщений. Роковой звонок / Call Me [триллер, драма, 1988] DVDRip, Mvo [ДТВ]

salma3

30 | 6

1.46 ГБ

В этой теме нет новых непрочитанных сообщений. Пересекающиеся линии / Пересекая черту / Crossing Lines [S02] (Дэниэл Персивал, Эрик Валетт, Энди Уилсон) [2014, Боевик, драма, криминал, HDRip | Sony Turbo]

Nickolas3435

201 | 73

9.36 ГБ

В этой теме нет новых непрочитанных сообщений. Фатальный звонок / Fatal Call [Комедия, приключения, 2012] DVDRip, Mvo [НТВ+]

salma3

82 | 2

1.37 ГБ

В этой теме нет новых непрочитанных сообщений. Звонок / The Ring [ужасы, детектив, 2002] BDRip 1080p, Dub+Dvo+2Avo+Sub

salma3

37 | 9

7.95 ГБ

В этой теме нет новых непрочитанных сообщений. Пересекая черту / Crossing Lines [03x01-07 из 12] (Дэниэл Персивал, Эрик Валетт, Энди Уилсон) [2015, Боевик, драма, криминал, HDTVRip | Sony Turbo]

Dracon

126 | 35

3.14 ГБ

В этой теме нет новых непрочитанных сообщений. Заражённая / Contracted (Эрик Инглэнд) [Ужасы, триллер, 2013] HDRip, dub [Чистый звук]

Dracon

36 | 1

1.36 ГБ


Начать новую тему Ответить на тему  [ 1 сообщение ] 




Для Мосгорсуда, Роскомнадзора и рекламодателей:: mosgorsud-torrent[собачка]yandex.ru