Торрент файл
скачать торрент магнет ссылка Добавлен: 16 янв 2012, 00:05
Размер: 1.45 ГБ
Сидеров: 0
Личеров: 4
Автор

СообщениеДобавлено: 16 янв 2012, 00:05 

Не в сети
Супермодератор
Аватара пользователя
Дата регистрации:
11 апр 2010, 18:10
Спасибо: 5799 / 7
Сообщения: 56779
Крик 4 / Scream 4


Перевод: Профессиональный (полное дублирование)
Субтитры: Присутствуют вшитые корейские субтитры
Формат: DLRip-AVC, MKV, H.264, AC3
Страна: США
Режиссер: Уэс Крэйвен
Жанр: ужасы, триллер, детектив
Продолжительность: 01:46:38
Год выпуска: 2011

В ролях: Люси Хейл, Роджер Л. Джексон, Шеней Граймс, Дэйн Фаруелл, Анна Пакуин, Кристен Белл, Эйми Тигарден, Бриттани Робертсон, Нив Кэмпбелл, Элисон Бри

Описание: Сидни Прескотт последние несколько лет провела в относительной тишине и покое. Теперь она работает методистом в Вудсборгской Средней Школе, ее Альма Матер. Жизнь потихоньку налаживается, вдали от вспышек и видеокамер папарацци.
Но когда находят труп одного из студентов, мир Сидни Прескотт вновь начинает рушиться. Всему виной возродившийся убийца в маске «Лицо Призрака»




Видео: 976 x 400 (2:40:1), 23.976 fps, AVC, х264, High@L4.1, ~ 1758 Kbps, 0.150 bit/pixel
Аудио: 48 kHz, AC3 Dolby Digital, 2/0 (L,R) ch, ~192 kbps


Рип: jeenart

Доп. информация:
Качество:[исходник WEB-DLRip 720p]
[звук с TS]

General
Unique ID: 203267313706059914755486858396481944310 (0x98EBDC5178DB1409A7CDC6AF8064FAF6)
Complete name: F:\Мои релизы\Все релизы 10\scream_4_[tfile.ru].mkv
Format: Matroska
File size: 1.45 GiB
Duration: 1h 46mn
Overall bit rate: 1 952 Kbps
Encoded date: UTC 2011-07-25 22:21:45
Writing application: mkvmerge v4.6.0 ('Still Crazy After All These Years') сборка от Apr1 2011 21:01:49
Writing library: libebml v1.2.0 + libmatroska v1.1.0

Video
ID: 1
Format: AVC
Format/Info: Advanced Video Codec
Format profile: High@L4.1
Format settings, CABAC: Yes
Format settings, ReFrames: 8 frames
Codec ID: V_MPEG4/ISO/AVC
Duration: 1h 46mn
Bit rate: 1 758 Kbps
Width: 976 pixels
Height: 400 pixels
Display aspect ratio: 2.40:1
Frame rate: 29.970 fps
Color space: YUV
Chroma subsampling: 4:2:0
Bit depth: 8 bits
Scan type: Progressive
Bits/(Pixel*Frame): 0.150
Stream size: 1.28 GiB (88%)
Writing library: x264 core 115 r1937 aa21558
Encoding settings: cabac=1 / ref=8 / deblock=1:-1:-1 / analyse=0x3:0x133 / me=umh / subme=9 / psy=1 / psy_rd=1.00:0.10 / mixed_ref=1 / me_range=16 / chroma_me=1 / trellis=2 / 8x8dct=1 / cqm=0 / deadzone=21,11 / fast_pskip=1 / chroma_qp_offset=-3 / threads=6 / sliced_threads=0 / nr=0 / decimate=1 / interlaced=0 / bluray_compat=0 / constrained_intra=0 / bframes=3 / b_pyramid=2 / b_adapt=2 / b_bias=0 / direct=3 / weightb=1 / open_gop=0 / weightp=2 / keyint=250 / keyint_min=25 / scenecut=40 / intra_refresh=0 / rc_lookahead=60 / rc=2pass / mbtree=1 / bitrate=1758 / ratetol=1.0 / qcomp=0.60 / qpmin=0 / qpmax=69 / qpstep=4 / cplxblur=20.0 / qblur=0.5 / ip_ratio=1.40 / aq=1:1.00

Audio
ID: 2
Format: AC-3
Format/Info: Audio Coding 3
Mode extension: CM (complete main)
Codec ID: A_AC3
Duration: 1h 46mn
Bit rate mode: Constant
Bit rate: 192 Kbps
Channel(s): 2 channels
Channel positions: Front: L R
Sampling rate: 48.0 KHz
Bit depth: 16 bits
Compression mode: Lossy
Stream size: 146 MiB (10%)
























Поделиться:




реклама партнёра


Вернуться к началу
 Профиль Отправить личное сообщение  
 
   Похожие торренты   Автор   Торрент   Размер 
В этой теме нет новых непрочитанных сообщений. Крик. Квадрология / Scream. Quadrilogy (Уэс Крэйвен) [1996, 1997, 1999, 2011, ужасы, триллер, детектив, BDRip]

Dracon

19 | 1

5.47 ГБ

В этой теме нет новых непрочитанных сообщений. Крик / Scream [01х01-10 из 10] [ужасы, криминал, детектив, 2015] WEB-DLRip, Mvo [LostFilm]

salma3

235 | 179

4.11 ГБ

В этой теме нет новых непрочитанных сообщений. Крик / Scream / 2 сезон 1-10 серия из 10 [ужасы, криминал, детектив, 2016] WEB-DLRip, Mvo [LostFilm]

salma3

124 | 82

6.45 ГБ

В этой теме нет новых непрочитанных сообщений. Крик и снова крик / Scream and Scream Again [фантастика, триллер, криминал, 1970] HDTVRip, Dvo [НТВ+]

salma3

39 | 3

1.37 ГБ

В этой теме нет новых непрочитанных сообщений. Крик / Scream [01х01-10 из 10] (Ли Джаньяк, Джулиус Рамсей, Джеми Трэвис) [ужасы, криминал, детектив, 2015] WEB-DL 720p, Mvo [LostFilm]

Dracon

217 | 206

12.25 ГБ

В этой теме нет новых непрочитанных сообщений. Крик / Scream [01х01-10 из 10] (Ли Джаньяк, Джулиус Рамсей, Джеми Трэвис) [ужасы, криминал, детектив, 2015] WEB-DL 1080p, Mvo [LostFilm]

Dracon

22 | 11

17.35 ГБ

В этой теме нет новых непрочитанных сообщений. Уиллоу Крик / Willow Creek [Ужасы, триллер, детектив, приключения, 2013] WEB-DLRip, Avo

salma3

113 | 8

1.37 ГБ


Начать новую тему Ответить на тему  [ 1 сообщение ] 




Для Мосгорсуда, Роскомнадзора и рекламодателей:: mosgorsud-torrent[собачка]yandex.ru