Торрент файл
скачать торрент магнет ссылка Добавлен: 16 янв 2012, 00:05
Размер: 1.37 ГБ
Сидеров: 34
Личеров: 8
Автор

СообщениеДобавлено: 16 янв 2012, 00:05 

Не в сети
Супермодератор
Аватара пользователя
Дата регистрации:
11 апр 2010, 18:10
Спасибо: 5802 / 7
Сообщения: 56779
Вой Банши / Scream of the Banshee

Перевод: Любительский (одноголосый), cубтитры: отсутствуют
Формат: DVDRip, AVI, XviD, AC3
Страна: США
Режиссер: Стивен С. Миллер
Жанр: ужасы
Продолжительность: 01:30:02
Год выпуска: 2011

В ролях: Моника Акоста, Эрик Ф. Адамс, Марселль Баэр, Эрик Браун, Лиэнн Кохрэн, Томас С. Дэниэл, Лэнс Хенриксен, Гаррет Хайнс

Описание: На адрес калифорнийского университета приходит анонимная посылка с ценной вещицей — рыцарской перчаткой XII века. Пристраивая её на склад, студенты случайно обнаруживают ещё один артефакт тех времён — старый железный ящик, закрытый на хитроумный замок. Обнаружив, что именно таинственная перчатка подходит в качестве ключа, ребята вскрывают ящик и обнаруживают в нём неплохо сохранившуюся голову какого-то зубастого существа. Давным-давно кто-то скрыл от людей опасную тайну, но человеческое любопытство вновь выпускает зло на свободу…

[/field]

Видео: 720x400 (1.80:1), 23.976 fps, XviD build 50 ~1716 kbps avg, 0.25 bit/pixel
Аудио: 48 kHz, AC3 Dolby Digital, 3/2 (L,C,R,l,r) + LFE ch, ~448.00 kbps avg

Доп. информация: Премьера (РФ) 21 июля 2011

General
Complete name: E:\Загрузки\Voj.Banshi.2011.L.DVDRip.avi
Format: AVI
Format/Info: Audio Video Interleave
File size: 1.37 GiB
Duration: 1h 30mn
Overall bit rate: 2 173 Kbps
Writing application: VirtualDubMod 1.5.10.2 (build 2540/release)
Writing library: VirtualDubMod build 2540/release

Video
ID: 0
Format: MPEG-4 Visual
Format profile: Advanced Simple@L5
Format settings, BVOP: 2
Format settings, QPel: No
Format settings, GMC: No warppoints
Format settings, Matrix: Default (H.263)
Codec ID: XVID
Codec ID/Hint: XviD
Duration: 1h 30mn
Bit rate: 1 716 Kbps
Width: 720 pixels
Height: 400 pixels
Display aspect ratio: 16:9
Frame rate: 23.976 fps
Color space: YUV
Chroma subsampling: 4:2:0
Bit depth: 8 bits
Scan type: Progressive
Compression mode: Lossy
Bits/(Pixel*Frame): 0.248
Stream size: 1.08 GiB (79%)
Writing library: XviD 1.2.1 (UTC 2008-12-04)

Audio
ID: 1
Format: AC-3
Format/Info: Audio Coding 3
Mode extension: CM (complete main)
Codec ID: 2000
Duration: 1h 30mn
Bit rate mode: Constant
Bit rate: 448 Kbps
Channel(s): 6 channels
Channel positions: Front: L C R, Side: L R, LFE
Sampling rate: 48.0 KHz
Bit depth: 16 bits
Compression mode: Lossy
Stream size: 289 MiB (21%)
Alignment: Split accross interleaves
Interleave, duration: 42 ms (1.00 video frame)
Interleave, preload duration: 500 ms










Поделиться:




реклама партнёра


Вернуться к началу
 Профиль Отправить личное сообщение  
 
   Похожие торренты   Автор   Торрент   Размер 
В этой теме нет новых непрочитанных сообщений. Банши: Музыка смерти / Banshee [триллер, драма, криминал, 2006] DVDRip, Mvo

salma3

44 | 7

1.45 ГБ

В этой теме нет новых непрочитанных сообщений. Банши / Banshee [S01] [боевик, триллер, драма, криминал, детектив, 2014] HDRip, Mvo [Amedia]

Dracon

458 | 100

4.07 ГБ

В этой теме нет новых непрочитанных сообщений. Банши / Banshee [S02] [боевик, триллер, драма, криминал, детектив, 2014] HDTVRip 720p, Mvo [Amedia]

Dracon

235 | 90

10.23 ГБ

В этой теме нет новых непрочитанных сообщений. Банши / Banshee [03x01-10 из 10] (Грег Яйтанс, Оле Кристиан Мадсен, С.Дж. Кларксон) [2015, боевик, триллер, драма, криминал, детектив, HDTVRip | Amedia]

Nickolas3435

275 | 129

6.03 ГБ

В этой теме нет новых непрочитанных сообщений. Банши / Banshee [03x01-10 из 10] (Грег Яйтанс, Оле Кристиан Мадсен, С.Дж. Кларксон) [2015, боевик, триллер, драма, криминал, детектив, HDTVRip 720p | Amedia]

Nickolas3435

176 | 189

14.41 ГБ

В этой теме нет новых непрочитанных сообщений. Scream Baby Scream - Campfire Tales [2011, Hard Rock,Glam Metal, MP3]

PriZraK

0 | 1

115.13 МБ

В этой теме нет новых непрочитанных сообщений. Секретный эксперимент / The Banshee Chapter [триллер, ужасы, 2013] WEB-DLRip, avo

Ανδρέας

978 | 56

1.37 ГБ


Начать новую тему Ответить на тему  [ 1 сообщение ] 




Для Мосгорсуда, Роскомнадзора и рекламодателей:: mosgorsud-torrent[собачка]yandex.ru