Торрент файл
скачать торрент магнет ссылка Добавлен: 16 янв 2012, 00:03
Размер: 703.18 МБ
Сидеров: 18
Личеров: 5
Автор

СообщениеДобавлено: 16 янв 2012, 00:03 

Не в сети
Супермодератор
Аватара пользователя
Дата регистрации:
11 апр 2010, 18:10
Спасибо: 5802 / 7
Сообщения: 56779
Дьявольская скала / The Devil's Rock

Перевод: Любительский (двухголосый), cубтитры: отсутствуют

Формат: DVDRip, AVI, XviD, AC3

Страна: Новая Зеландия

Режиссер: Пол Кэмпион

Жанр: ужасы, фэнтези, боевик, триллер, драма, военный

Продолжительность: 01:23:04

Год выпуска: 2011

В ролях: Крэйг Холл, Мэтью Сандерлэнд, Джина Варела, Карлос Дринкуотер, Люк Хокер, Джессика Грэйс Смит, Ник Данбар, Джонатан Кинг, Джеральдин Брофи

Описание: Группа коммандос, посланных в район нормандских островов чтобы разрушить базирующуюся там группировку нацистов, узнают о их тайном плане по вызову демонических сил. С этого момента операция для коммандос превращается в борьбу не только с гитлеровскими войсками, но и с демоном в человеческом обличье.

[/field]

Видео: 640x352 (1.82:1), 25 fps, XviD build 58 ~1045 kbps avg, 0.19 bit/pixel
Аудио: 48 kHz, MPEG Layer 3, 2 ch, ~128.00 kbps avg

General
Complete name: E:\Загрузки\Diyavolskaya skala (2011) DVDRip.avi
Format: AVI
Format/Info: Audio Video Interleave
File size: 703 MiB
Duration: 1h 23mn
Overall bit rate: 1 184 Kbps
Writing application: VirtualDubMod 1.5.10.3| (build 2550/release)
Writing library: VirtualDubMod build 2550/release

Video
ID: 0
Format: MPEG-4 Visual
Format profile: Advanced Simple@L5
Format settings, BVOP: 1
Format settings, QPel: No
Format settings, GMC: No warppoints
Format settings, Matrix: Default (MPEG)
Codec ID: XVID
Codec ID/Hint: XviD
Duration: 1h 23mn
Bit rate: 1 046 Kbps
Width: 640 pixels
Height: 352 pixels
Display aspect ratio: 16:9
Frame rate: 25.000 fps
Color space: YUV
Chroma subsampling: 4:2:0
Bit depth: 8 bits
Scan type: Progressive
Compression mode: Lossy
Bits/(Pixel*Frame): 0.186
Stream size: 621 MiB (88%)
Writing library: XviD 58

Audio
ID: 1
Format: MPEG Audio
Format version: Version 1
Format profile: Layer 3
Codec ID: 55
Codec ID/Hint: MP3
Duration: 1h 23mn
Bit rate mode: Constant
Bit rate: 128 Kbps
Channel(s): 2 channels
Sampling rate: 48.0 KHz
Compression mode: Lossy
Stream size: 76.1 MiB (11%)
Alignment: Aligned on interleaves
Interleave, duration: 40 ms (1.00 video frame)
Interleave, preload duration: 504 ms
Writing library: LAME3.98r
Encoding settings: -m s -V 4 -q 2 -lowpass 17 -b 128






Поделиться:




реклама партнёра


Вернуться к началу
 Профиль Отправить личное сообщение  
 
   Похожие торренты   Автор   Торрент   Размер 
В этой теме нет новых непрочитанных сообщений. Дьявольская миля / Devil's Mile [ужасы, триллер, 2014] WEBRip, Avo

salma3

254 | 14

970.81 МБ

В этой теме нет новых непрочитанных сообщений. Дьявольская миля / Devil's Mile [ужасы, боевик, криминал, 2014] WEBRip, Avo

salma3

436 | 35

1.37 ГБ

В этой теме нет новых непрочитанных сообщений. Дьявольская музыка / Дьявольская шутка / Scherzo Diabolico [ужасы, триллер, комедия, 2015] HDRip, Avo

salma3

0 | 0

1.37 ГБ

В этой теме нет новых непрочитанных сообщений. Скала / The Rock [Боевик, Триллер, Приключения, 1996] BDRemux, Dub+Avo

salma3

6 | 3

21.72 ГБ

В этой теме нет новых непрочитанных сообщений. Дьявольская гора / Sasquatch Mountain / Devil on the Mountain [фантастика, 2006] DVDRip, Dvo

salma3

5 | 4

1.47 ГБ

В этой теме нет новых непрочитанных сообщений. Здесь живёт дьявол / The Devil Lives Here / O Diabo Mora Aqui [ужасы, фэнтези, триллер, 2015] DVDRip, Avo

salma3

114 | 5

1.37 ГБ

В этой теме нет новых непрочитанных сообщений. Дракула / Dracula Untold [ужасы, фэнтези, боевик, драма, военный, 2014] WEB-DLRip-AVC, Dub [iTunes]

Dracon

1286 | 56

1.46 ГБ


Начать новую тему Ответить на тему  [ 1 сообщение ] 




Для Мосгорсуда, Роскомнадзора и рекламодателей:: mosgorsud-torrent[собачка]yandex.ru