Торрент файл
скачать торрент магнет ссылка Добавлен: 16 янв 2012, 00:00
Размер: 1.37 ГБ
Сидеров: 5
Личеров: 8
Автор

СообщениеДобавлено: 16 янв 2012, 00:00 

Не в сети
Супермодератор
Аватара пользователя
Дата регистрации:
11 апр 2010, 18:10
Спасибо: 5799 / 7
Сообщения: 56779
Кома / The Plague

Перевод: Профессиональный (многоголосый, закадровый), cубтитры: отсутствуют

Формат: DVDRip, AVI, XviD, AC3

Страна: США

Режиссер: Hal Masonberg

Жанр: ужасы

Продолжительность: 01:24:31

Год выпуска: 2006

В ролях: Джеймс Ван Дер Бик, Ивана Милишевич, Брэд Хант, Джошуа Клоуз, Джон П. Коннолли, Ди Уоллес-Стоун, Бриттани Скоуби, Джон Тед Винн, Арни Макферсо

Описание: Десять лет прошли с того времени, как дети всего мира погрузились в кому. И сегодня они пробудятся и весь мир сорвется с цепи… Нас ждет сражение между поколениями, дети воюют против взрослых, но время не на их стороне…

[/field]

Видео: 704x304 (2.32:1), 25 fps, XviD build 47 ~1919 kbps avg, 0.36 bit/pixel
Аудио: 48 kHz, AC3 Dolby Digital, 3/2 (L,C,R,l,r) + LFE ch, ~384.00 kbps avg

General
Complete name: E:\Загрузки\The Plague.2006.DVDRip.avi
Format: AVI
Format/Info: Audio Video Interleave
File size: 1.37 GiB
Duration: 1h 24mn
Overall bit rate: 2 314 Kbps
Writing application: VirtualDubMod 1.5.10.2 (build 2540/release)
Writing library: VirtualDubMod build 2540/release

Video
ID: 0
Format: MPEG-4 Visual
Format profile: Advanced Simple@L5
Format settings, BVOP: 1
Format settings, QPel: No
Format settings, GMC: No warppoints
Format settings, Matrix: Default (MPEG)
Codec ID: XVID
Codec ID/Hint: XviD
Duration: 1h 24mn
Bit rate: 1 920 Kbps
Width: 704 pixels
Height: 304 pixels
Display aspect ratio: 2.35:1
Frame rate: 25.000 fps
Color space: YUV
Chroma subsampling: 4:2:0
Bit depth: 8 bits
Scan type: Progressive
Compression mode: Lossy
Bits/(Pixel*Frame): 0.359
Stream size: 1.13 GiB (83%)
Writing library: XviD 1.2.0.dev47 (UTC 2006-11-01)

Audio
ID: 1
Format: AC-3
Format/Info: Audio Coding 3
Mode extension: CM (complete main)
Codec ID: 2000
Duration: 1h 24mn
Bit rate mode: Constant
Bit rate: 384 Kbps
Channel(s): 6 channels
Channel positions: Front: L C R, Side: L R, LFE
Sampling rate: 48.0 KHz
Bit depth: 16 bits
Compression mode: Lossy
Stream size: 232 MiB (17%)
Alignment: Split accross interleaves
Interleave, duration: 40 ms (1.00 video frame)
Interleave, preload duration: 500 ms










Поделиться:




реклама партнёра


Вернуться к началу
 Профиль Отправить личное сообщение  
 
   Похожие торренты   Автор   Торрент   Размер 
В этой теме нет новых непрочитанных сообщений. Чумной город / Plague Town [ужасы, триллер, 2008] DVDRip, Mvo

salma3

126 | 6

1.37 ГБ

В этой теме нет новых непрочитанных сообщений. Чума / Plague (Ницк Козакис, Коста Оузас) [ужасы, драма, 2014] WEB-DLRip, dvo

Dracon

1261 | 59

1.46 ГБ

В этой теме нет новых непрочитанных сообщений. Кома / Coma [S01] (Микаэл Саломон) [2012, фантастика, детектив, драма, триллер, HDTVRip | ТВ3]

Nickolas3435

221 | 23

2.74 ГБ

В этой теме нет новых непрочитанных сообщений. Crocell - Come Forth Plague [2013, Melodic Death Metal, MP3]

PriZraK

0 | 1

91.13 МБ

В этой теме нет новых непрочитанных сообщений. Spread The Plague - Pangaea (EP) [Февраль 2012, Deathcore, MP3]

PriZraK

0 | 1

69.89 МБ

В этой теме нет новых непрочитанных сообщений. Winds Of Plague - Resistance [2013, Symphonic Metalcore, Deathcore, MP3]

PriZraK

0 | 1

95.77 МБ

В этой теме нет новых непрочитанных сообщений. Plague Inc: Evolved [v.1.13.0] [Strategy (Real-time), 2016] [RePack]

Sykre

1 | 0

359.7 МБ


Начать новую тему Ответить на тему  [ 1 сообщение ] 




Для Мосгорсуда, Роскомнадзора и рекламодателей:: mosgorsud-torrent[собачка]yandex.ru