Торрент файл
скачать торрент магнет ссылка Добавлен: 15 янв 2012, 23:59
Размер: 1.46 ГБ
Сидеров: 263
Личеров: 16
Автор

СообщениеДобавлено: 15 янв 2012, 23:59 

Не в сети
Супермодератор
Аватара пользователя
Дата регистрации:
11 апр 2010, 18:10
Спасибо: 5799 / 7
Сообщения: 56779
Операция «Мертвый снег» / Dead Snow

Перевод: Профессиональный (полное дублирование), cубтитры: отсутствуют

Формат: HDRip, AVI, XviD, AC3

Страна: Норвегия

Режиссер: Томми Виркола

Жанр: ужасы, комедия

Продолжительность: 01:27:42

Год выпуска: 2009

В ролях: Шарлотта Фрогнер, Ориян Гамст, Стиг Фроде Хенриксен, Вегар Хоел, Джипп Лоурсен, Ив Элис Касет Ростен, Дженни Скавлан, Бйорн Сундквист, Эни Даль Торп

Описание: Группа студентов-медиков отправляется в горы, чтобы провести там несколько дней на каникулах. Вместо отдыха и развлечений в декорациях идиллического норвежского пейзажа молодые люди попадают в кошмарный сон — им приходится бороться за жизнь в схватке с пропавшим здесь когда-то во время войны отрядом немецких солдат, превратившихся теперь в зомби.

[/field]

Видео: 720x384 (1.88:1), 25 fps, XviD build 47 ~1985 kbps avg, 0.29 bit/pixel
Аудио: 48 kHz, AC3 Dolby Digital, 3/2 (L,C,R,l,r) + LFE ch, ~384.00 kbps avg

Релиз группа:

Художественные особенности

Один из редких представителей жанра «хоррор с зомби-нацистами».

Командир зомби Герцог в одних сводках упоминается как «майор», в других как «оберст», а в третьих — как «полковник». При этом на нём одна и та же форма.

Исторические неточности

Немецкая граната Stielhandgranate не могла взорваться не только через 60 лет, но и через год после своего изготовления, так как взрывчатое вещество в ней подвержено слеживанию при длительном хранении.

Судя по фуражке, командир зомби принадлежит к подразделениям войск СС, тогда как большинство его солдат принадлежат к Вермахту.

В фильме присутствует продакт-плэйсмент — в финальной схватке с зомби один из героев пользуется бензопилой Jonsered (её название показано крупным планом).

В схватке с зомби, один из живых скрестил серп и молот, что является отсылкой к Великой Отечественной войне, когда воюющими сторонами были в основном СССР и Германия.
General
Complete name: E:\Загрузки\Operatsiya.Mertvuy.Sneg.2009.RUS.BDRip.XviD.AC3.-HQ-ViDEO.avi
Format: AVI
Format/Info: Audio Video Interleave
File size: 1.46 GiB
Duration: 1h 27mn
Overall bit rate: 2 380 Kbps
Movie name: Операция "Мертвый снег" / Dead Snow (2009)
Director: vladaudi (BDRip 720)
Writing application: VirtualDubMod 1.5.10.2 (build 2540/release)
Comment: 11.06.2009

Video
ID: 0
Format: MPEG-4 Visual
Format profile: Advanced Simple@L5
Format settings, BVOP: 1
Format settings, QPel: No
Format settings, GMC: No warppoints
Format settings, Matrix: Default (MPEG)
Codec ID: XVID
Codec ID/Hint: XviD
Duration: 1h 27mn
Bit rate: 1 986 Kbps
Width: 720 pixels
Height: 384 pixels
Display aspect ratio: 1.875
Frame rate: 25.000 fps
Color space: YUV
Chroma subsampling: 4:2:0
Bit depth: 8 bits
Scan type: Progressive
Compression mode: Lossy
Bits/(Pixel*Frame): 0.287
Stream size: 1.22 GiB (83%)
Writing library: XviD 1.2.0.dev47 (UTC 2006-11-01)

Audio
ID: 1
Format: AC-3
Format/Info: Audio Coding 3
Mode extension: CM (complete main)
Codec ID: 2000
Duration: 1h 27mn
Bit rate mode: Constant
Bit rate: 384 Kbps
Channel(s): 6 channels
Channel positions: Front: L C R, Side: L R, LFE
Sampling rate: 48.0 KHz
Bit depth: 16 bits
Compression mode: Lossy
Stream size: 241 MiB (16%)
Alignment: Split accross interleaves
Interleave, duration: 40 ms (1.00 video frame)
Interleave, preload duration: 500 ms









Поделиться:




реклама партнёра


Вернуться к началу
 Профиль Отправить личное сообщение  
 
   Похожие торренты   Автор   Торрент   Размер 
В этой теме нет новых непрочитанных сообщений. Операция «Мертвый снег» 2 / Død Snø 2 [ужасы, боевик, комедия, 2014] HDRip, Dub [лицензия]

salma3

998 | 32

1.46 ГБ

В этой теме нет новых непрочитанных сообщений. Операция «Мертвый снег» 2 / Død Snø 2 [ужасы, триллер, 2014] HDRip, dvo

Dracon

240 | 3

1.37 ГБ

В этой теме нет новых непрочитанных сообщений. Операция «Мёртвый снег» 2 / Død Snø 2 [Ужасы, боевик, комедия, 2014] DVD5, Mvo [Сжатый]

salma3

16 | 4

4.29 ГБ

В этой теме нет новых непрочитанных сообщений. Операция «Мертвый снег» 2 / Død Snø 2 [ужасы, триллер, 2014] BDRip 720p, dvo

Dracon

131 | 3

4.42 ГБ

В этой теме нет новых непрочитанных сообщений. Операция «Мертвый снег» 2 / Dod Sno 2 [ужасы, триллер, 2014] BRemux 1080p, dvo

Dracon

2 | 2

12.67 ГБ

В этой теме нет новых непрочитанных сообщений. Операция «Мертвый снег» 2 / Dod Sno 2 [ужасы, триллер, 2014] BDRip 720p, Mvo [лицензия]

Dracon

2 | 2

4.15 ГБ

В этой теме нет новых непрочитанных сообщений. Снег в раю / Snow in Paradise (Эндрю Хьюм) [Триллер, драма, криминал, 2014] HDRip, dvo

Dracon

399 | 37

1.41 ГБ


Начать новую тему Ответить на тему  [ 1 сообщение ] 




Для Мосгорсуда, Роскомнадзора и рекламодателей:: mosgorsud-torrent[собачка]yandex.ru