Торрент файл
скачать торрент магнет ссылка Добавлен: 15 янв 2012, 23:57
Размер: 2.19 ГБ
Сидеров: 286
Личеров: 23
Автор

СообщениеДобавлено: 15 янв 2012, 23:57 

Не в сети
Супермодератор
Аватара пользователя
Дата регистрации:
11 апр 2010, 18:10
Спасибо: 5801 / 7
Сообщения: 56779
Шесть демонов Эмили Роуз / The Exorcism of Emily Rose

Перевод: Профессиональный (полное дублирование), cубтитры: русские

Формат: HDRip-AVC, MKV, H.264, AC3

Страна: США

Режиссер: Скотт Дерриксон

Жанр: ужасы, триллер, драма

Продолжительность: 02:01:45

Год выпуска: 2005

В ролях: Лора Линни, Том Уилкинсон, Кэмпбелл Скотт, Дженнифер Карпентер, Колм Фиор, Джошуа Клоуз, Кеннет Уэлш, Дункан Фрайзер, ДжейАр Борн, Мэри Бет Херт

Описание: Фильм основан на реальных событиях. В 1976 году сеанс изгнания дьявола из молодой девушки закончился ее смертью. Священнику-экзорцисту, проводившему обряд, было предъявлено обвинение в убийстве, хотя процесс был официально инициирован католической церковью.

В поиске справедливости священник изучает историю появления на земле демона, погубившего девушку, и пытается доказать в суде факт существования потусторонних сил и их способность вмешиваться в жизнь людей…


[/field]

Видео: 1280x528 (16:9), 23.976 fps, AVC, х264, High@L4.1, ~ 2198 Kbps 0.136 bit/pixel
Аудио: 48 kHz, AC3 Dolby Digital, 3/2 (L,C,R,l,r) + LFE ch, ~384.00 kbps avg

Бюджет $19 000 000

Кассовые сборы $145 172 588
2006 Премия Сатурн
лучший фильм ужасов
номинация — лучшая актриса (Лора Линни).
номинация — лучшая актриса второго плана (Дженнифер Карпентер).

2006 Golden Trailer Awards

лучший фильм ужасов

2006 MTV Movie Awards

Best Frightened Performance — Дженнифер Карпентер
Best Breakthrough Performance — Дженнифер Карпентер
General
Unique ID: 187655005006179222335726408505017252347 (0x8D2D0A11E514CDD397C28FCD24FC39FB)
Complete name: E:\Загрузки\Shest_demonov_Emili_Rouz.Unrated.2005.[nolimits-team].mkv
Format: Matroska
File size: 2.19 GiB
Duration: 2h 1mn
Overall bit rate: 2 571 Kbps
Encoded date: UTC 2011-04-20 21:09:31
Writing application: mkvmerge v3.2.0 ('Beginnings') built on Feb 12 2010 16:46:17
Writing library: libebml v0.7.9 + libmatroska v0.8.1

Video
ID: 2
Format: AVC
Format/Info: Advanced Video Codec
Format profile: High@L4.1
Format settings, CABAC: Yes
Format settings, ReFrames: 3 frames
Format settings, GOP: M=4, N=16
Codec ID: V_MPEG4/ISO/AVC
Duration: 2h 1mn
Bit rate mode: Variable
Bit rate: 2 198 Kbps
Maximum bit rate: 15.0 Mbps
Width: 1 280 pixels
Height: 528 pixels
Display aspect ratio: 2.40:1
Original display aspect ratio: 2.40:1
Frame rate: 23.976 fps
Color space: YUV
Chroma subsampling: 4:2:0
Bit depth: 8 bits
Scan type: Progressive
Bits/(Pixel*Frame): 0.136
Stream size: 1.82 GiB (83%)
Title: Shest_demonov_Emili_Rouz.Unrated.2005.
Writing library: x264 core 114 r1913 5fd3dce
Encoding settings: cabac=1 / ref=1 / deblock=1:0:0 / analyse=0x3:0x3 / me=dia / subme=1 / psy=1 / psy_rd=0.00:0.00 / mixed_ref=0 / me_range=16 / chroma_me=1 / trellis=0 / 8x8dct=1 / cqm=0 / deadzone=21,11 / fast_pskip=1 / chroma_qp_offset=0 / threads=6 / sliced_threads=0 / slices=4 / nr=0 / decimate=1 / interlaced=0 / constrained_intra=0 / bframes=3 / b_pyramid=1 / b_adapt=1 / b_bias=0 / direct=1 / weightb=1 / open_gop=0 / weightp=1 / keyint=24 / keyint_min=1 / scenecut=40 / intra_refresh=0 / rc_lookahead=0 / rc=abr / mbtree=0 / bitrate=2198 / ratetol=1.0 / qcomp=0.60 / qpmin=0 / qpmax=69 / qpstep=4 / vbv_maxrate=15000 / vbv_bufsize=15000 / nal_hrd=vbr / ip_ratio=1.10 / pb_ratio=1.10 / aq=1:1.00
Language: English

Audio
ID: 1
Format: AC-3
Format/Info: Audio Coding 3
Mode extension: CM (complete main)
Codec ID: A_AC3
Duration: 2h 1mn
Bit rate mode: Constant
Bit rate: 384 Kbps
Channel(s): 6 channels
Channel positions: Front: L C R, Side: L R, LFE
Sampling rate: 48.0 KHz
Bit depth: 16 bits
Compression mode: Lossy
Stream size: 334 MiB (15%)
Title: Dub
Language: Russian

Text
ID: 3
Format: UTF-8
Codec ID: S_TEXT/UTF8
Codec ID/Info: UTF-8 Plain Text
Language: Russian









Поделиться:




реклама партнёра


Вернуться к началу
 Профиль Отправить личное сообщение  
 
   Похожие торренты   Автор   Торрент   Размер 
В этой теме нет новых непрочитанных сообщений. Последнее изгнание дьявола: Второе пришествие / The Last Exorcism Part II [Ужасы, триллер, 2013] HDRip, Dub [UNRATED | Чистый звук]

Dracon

1 | 4

699.45 МБ

В этой теме нет новых непрочитанных сообщений. Экзорцизм Молли Хартли / The Exorcism of Molly Hartley (Стивен Р. Монро) [Ужасы, 2015] HDRip, dvo

Dracon

5707 | 207

1.46 ГБ

В этой теме нет новых непрочитанных сообщений. Шесть дней, шесть ночей / À la folie [драма, 1994] DVDRip, Avo+Sub

salma3

52 | 6

699.65 МБ

В этой теме нет новых непрочитанных сообщений. Охотники на демонов / Hellbenders [ужасы, триллер, комедия, 2012] DVD5, Dub [лицензия]

salma3

4 | 3

3.8 ГБ

В этой теме нет новых непрочитанных сообщений. Чужая дочь / Audrey Rose [ужасы, фэнтези, триллер, драма, 1977] BDRip 1080p, Mvo+Sub

salma3

7 | 5

15.73 ГБ

В этой теме нет новых непрочитанных сообщений. Чужая дочь / Audrey Rose [ужасы, фэнтези, триллер, драма, 1977] BDRip 720p, Mvo+Sub

salma3

13 | 4

6.77 ГБ

В этой теме нет новых непрочитанных сообщений. Охотники на демонов / Hellbenders [комедия, ужасы, триллер, 2012] BDRip 1080p, Dub [Лицензия]

salma3

19 | 4

7.1 ГБ


Начать новую тему Ответить на тему  [ 1 сообщение ] 




Для Мосгорсуда, Роскомнадзора и рекламодателей:: mosgorsud-torrent[собачка]yandex.ru