Торрент файл
скачать торрент магнет ссылка Добавлен: 15 янв 2012, 23:50
Размер: 1.45 ГБ
Сидеров: 30
Личеров: 5
Автор

СообщениеДобавлено: 15 янв 2012, 23:50 

Не в сети
Супермодератор
Аватара пользователя
Дата регистрации:
11 апр 2010, 18:10
Спасибо: 5802 / 7
Сообщения: 56779
Шелуха / Husk



Перевод: Профессиональный (многоголосый закадровый),субтитры: отсутствуют
Формат: HDRip-AVC, MKV, H.264, AC3
Страна: США
Жанр: ужасы, триллер
Продолжительность: 01:23:00
Режиссер: Бретт Симмонс / Brett Simmons
Год выпуска: 2011

В ролях: Девон Грайе, Уэс Чэтэм, С.Дж. Томасон, Таммин Сурсок, Бен Истер, Джош Скипворт, Ник Туссэн, Майкл Корнелисон, Аарон Харполд, Кэндис Роуз

Описание:Пятеро друзей путешествуют по стране. Их авто мчится по проселочной дороге среди бескрайних кукурузных полей. Внезапно стая ворон врезается в ветровое стекло и машина съезжает в кювет. Ребята отправляются за помощью к ближайшему дому. Однако на заброшенной ферме нет живых людей. Единственный здешний обитатель — отвратительный монстр, напоминающее воронье пугало. И он не желает выпускать живым из этих зарослей кукурузы никого из них…

________

Видео: 1024x 576 (2:35:1), 23,976 кадр/сек, AVC (х264), High@L3.2, ~2120 Kbps, 0.150 bit/pixel
Аудио: 48 kHz, AC3 Dolby Digital, 3/2 (L,C,R,l,r) + LFE ch, ~384 kbps


Автор РИПа:ddimmon22
Общее
Уникальный идентификатор: 253472866029551287944333583503919373976 (0xBEB11928B877C112A0DF21C4132B5E9
Полное имя: K:\РИПЫ\husk_[tfile.ru].mkv
Формат: Matroska
Версия формата: Version 2
Размер файла: 1,45 Гбайт
Продолжительность: 1 ч. 23 м.
Общий поток: 2503 Кбит/сек
Дата кодирования: UTC 2011-09-17 14:55:07
Программа кодирования: mkvmerge v4.9.1 ('Ich will') зібрано Aug 10 2011 09:31:20
Библиотека кодирования: libebml v1.2.1 + libmatroska v1.2.0

Видео
Идентификатор: 1
Формат: AVC
Формат/Информация: Advanced Video Codec
Профиль формата: High@L3.2
Параметр CABAC формата: Да
Параметр ReFrames формата: 8 кадров
Идентификатор кодека: V_MPEG4/ISO/AVC
Продолжительность: 1 ч. 23 м.
Битрейт: 2120 Кбит/сек
Ширина: 1024 пикс.
Высота: 576 пикс.
Соотношение сторон:2:35:1
Частота кадров: 23,976 кадр/сек
Цветовое пространство: YUV
Подвыборка цветности: 4:2:0
Битовая глубина: 8 бит
Тип развёртки: Прогрессивная
Бит/(Пиксели*Кадры): 0.150
Размер потока: 1,20 Гбайт (83%)
Библиотека кодирования: x264 core 116 r2074 2641b9e
Настройки программы: cabac=1 / ref=8 / deblock=1:-1:-1 / analyse=0x3:0x133 / me=umh / subme=7 / psy=1 / psy_rd=1.00:0.10 / mixed_ref=1 / me_range=16 / chroma_me=1 / trellis=2 / 8x8dct=1 / cqm=0 / deadzone=21,11 / fast_pskip=0 / chroma_qp_offset=-3 / threads=3 / sliced_threads=0 / nr=0 / decimate=1 / interlaced=0 / bluray_compat=0 / constrained_intra=0 / bframes=3 / b_pyramid=2 / b_adapt=2 / b_bias=0 / direct=3 / weightb=1 / open_gop=0 / weightp=2 / keyint=250 / keyint_min=23 / scenecut=40 / intra_refresh=0 / rc_lookahead=50 / rc=2pass / mbtree=1 / bitrate=2120 / ratetol=1.0 / qcomp=0.60 / qpmin=0 / qpmax=69 / qpstep=4 / cplxblur=20.0 / qblur=0.5 / ip_ratio=1.40 / aq=1:1.00

Аудио
Идентификатор: 2
Формат: AC-3
Формат/Информация: Audio Coding 3
Расширение режима: CM (complete main)
Идентификатор кодека: A_AC3
Продолжительность: 1 ч. 23 м.
Вид битрейта: Постоянный
Битрейт: 384 Кбит/сек
Каналы: 6 каналов
Расположение каналов: Front: L C R, Side: L R, LFE
Частота: 48,0 КГц
Битовая глубина: 16 бит
Метод сжатия: С потерями
Размер потока: 228 Мбайт (15%)









Поделиться:




реклама партнёра


Вернуться к началу
 Профиль Отправить личное сообщение  
 
   Похожие торренты   Автор   Торрент   Размер 
В этой теме нет новых непрочитанных сообщений. Обезьянья лапа / Тhe Monkey's Paw (Бретт Симмонс) [2013, ужасы, триллер, HDRip] dvo

Nickolas3435

108 | 6

1.37 ГБ

В этой теме нет новых непрочитанных сообщений. Убойная Красотка / Bombshell Bloodbath (Бретт Маллен) [Ужасы, 2014] HDRip, avo

Dracon

75 | 4

1.37 ГБ

В этой теме нет новых непрочитанных сообщений. Jessie Simmons / Young and Tight (2015) HD 720p

Dile-1

6 | 3

498.47 МБ

В этой теме нет новых непрочитанных сообщений. Юлия Икс / Julia X [триллер, ужасы, 2011] HDRip, Mvo

salma3

252 | 20

1.46 ГБ

В этой теме нет новых непрочитанных сообщений. Недетские игры / Come Out and Play [триллер, ужасы, 2011] HDRip, Mvo

salma3

117 | 3

1.37 ГБ

В этой теме нет новых непрочитанных сообщений. Близнецы-убийцы / Seconds Apart [ужасы, триллер, 2011] HDRip, Mvo [Лицензия]

salma3

16 | 3

1.45 ГБ

В этой теме нет новых непрочитанных сообщений. Список смертников / Kill List [ужасы, триллер, 2011] HDRip, Mvo

salma3

204 | 28

1.46 ГБ


Начать новую тему Ответить на тему  [ 1 сообщение ] 




Для Мосгорсуда, Роскомнадзора и рекламодателей:: mosgorsud-torrent[собачка]yandex.ru