Торрент файл
скачать торрент магнет ссылка Добавлен: 15 янв 2012, 23:46
Размер: 2.1 ГБ
Сидеров: 91
Личеров: 8
Автор

СообщениеДобавлено: 15 янв 2012, 23:46 

Не в сети
Супермодератор
Аватара пользователя
Дата регистрации:
11 апр 2010, 18:10
Спасибо: 5802 / 7
Сообщения: 56779
Адвокат дьявола / The Devil's Advocate


Перевод: Профессиональный (полное дублирование), cубтитры: отсутствуют
Формат: HDTVRip-AVC, MKV, H.264, AC3
Страна: США, Германия
Режиссер: Тейлор Хэкфорд
Жанр: ужасы, триллер, драма
Продолжительность: 02:23:55
Год выпуска: 1997

В ролях: Киану Ривз, Аль Пачино, Шарлиз Терон, Джеффри Джонс, Джудит Айви, Конни Нилсен, Крэйг Т. Нельсон, Тамара Тюни, Рубен Сантьяго-Хадсон, Дебра Монк

Описание: В Нью-Йорк по приглашению главы крупного юридического концерна прибывает Кевин Ломакс, молодой адвокат. До этого он был известен тем, что защищал исключительно негодяев и притом не проиграл ни одного процесса. На новом месте работы он вполне счастлив, он живет в роскошной квартире с любящей женой, его окружают интересные люди.Но вскоре ситуация неуловимо меняется, происходят странные и зловещие события: внезапно погибает один из его коллег, затем кончает самоубийством его жена. Кевин, догадываясь, в чем тут дело, приходит к шефу концерна Джону Милтону… Последний же имеет еще и другое имя — он сам Сатана, и он намерен объяснить молодому человеку, зачем его пригласили в Нью-Йорк…



Видео: 960 x 400 (2:40:1), 23.976 fps, AVC (х264) High@L4.1, ~ 1707 Kbps, 0.185 bit/pixel
Аудио: 48 kHz, AC3 Dolby Digital, 3/2 (L,C,R,l,r) + LFE ch, ~384 kbps


Рип: jeenart

Toп250: #76

General
Unique ID: 208827375833062454910386042677387339042 (0x9D1AB08BC0E9EDECBAB0DF7889082522)
Complete name: F:\Мои релизы\Все релизы 10\advokat_dijavola_[tfile.ru].mkv
Format: Matroska
File size: 2.10 GiB
Duration: 2h 23mn
Overall bit rate: 2 093 Kbps
Encoded date: UTC 2011-09-29 12:13:34
Writing application: mkvmerge v4.6.0 ('Still Crazy After All These Years') сборка от Apr1 2011 21:01:49
Writing library: libebml v1.2.0 + libmatroska v1.1.0

Video
ID: 1
Format: AVC
Format/Info: Advanced Video Codec
Format profile: High@L4.1
Format settings, CABAC: Yes
Format settings, ReFrames: 4 frames
Codec ID: V_MPEG4/ISO/AVC
Duration: 2h 23mn
Bit rate: 1 707 Kbps
Width: 960 pixels
Height: 400 pixels
Display aspect ratio: 2.40:1
Frame rate: 23.976 fps
Color space: YUV
Chroma subsampling: 4:2:0
Bit depth: 8 bits
Scan type: Progressive
Bits/(Pixel*Frame): 0.185
Stream size: 1.68 GiB (80%)
Writing library: x264 core 115 r1937 aa21558
Encoding settings: cabac=1 / ref=3 / deblock=1:-1:-1 / analyse=0x3:0x113 / me=hex / subme=7 / psy=1 / psy_rd=1.00:0.10 / mixed_ref=1 / me_range=16 / chroma_me=1 / trellis=1 / 8x8dct=1 / cqm=0 / deadzone=21,11 / fast_pskip=1 / chroma_qp_offset=-3 / threads=6 / sliced_threads=0 / nr=0 / decimate=1 / interlaced=0 / bluray_compat=0 / constrained_intra=0 / bframes=3 / b_pyramid=2 / b_adapt=1 / b_bias=0 / direct=1 / weightb=1 / open_gop=0 / weightp=2 / keyint=250 / keyint_min=23 / scenecut=40 / intra_refresh=0 / rc_lookahead=40 / rc=2pass / mbtree=1 / bitrate=1707 / ratetol=1.0 / qcomp=0.60 / qpmin=0 / qpmax=69 / qpstep=4 / cplxblur=20.0 / qblur=0.5 / ip_ratio=1.40 / aq=1:1.00

Audio
ID: 2
Format: AC-3
Format/Info: Audio Coding 3
Mode extension: CM (complete main)
Codec ID: A_AC3
Duration: 2h 23mn
Bit rate mode: Constant
Bit rate: 384 Kbps
Channel(s): 6 channels
Channel positions: Front: L C R, Side: L R, LFE
Sampling rate: 48.0 KHz
Bit depth: 16 bits
Compression mode: Lossy
Stream size: 395 MiB (18%)













Поделиться:




реклама партнёра


Вернуться к началу
 Профиль Отправить личное сообщение  
 
   Похожие торренты   Автор   Торрент   Размер 
В этой теме нет новых непрочитанных сообщений. Нападение на Остров Дьявола / Assault on Devil's Island [боевик, триллер, приключения, 1997] DVDRip, Mvo

salma3

20 | 5

1.37 ГБ

В этой теме нет новых непрочитанных сообщений. Узел дьявола / Devil's Knot [драма, триллер, криминал, 2013] HDRip, Dvo

Dracon

66 | 4

1.37 ГБ

В этой теме нет новых непрочитанных сообщений. Узел дьявола / Devil's Knot [драма, триллер, криминал, 2013] HDRip, Avo

Dracon

686 | 25

1.37 ГБ

В этой теме нет новых непрочитанных сообщений. Узел дьявола / Devil's Knot [драма, триллер, криминал, 2013] HDRip, Dvo

salma3

161 | 7

2.05 ГБ

В этой теме нет новых непрочитанных сообщений. Пришествие Дьявола / Devil's Due [Ужасы, 2014] CAMRip, Dub

Dracon

8 | 4

1.37 ГБ

В этой теме нет новых непрочитанных сообщений. Служители дьявола / Spellbinder [ужасы, триллер, драма, мелодрама, 1988] HDTVRip, Dvo

salma3

67 | 9

1.45 ГБ

В этой теме нет новых непрочитанных сообщений. Узел дьявола / Devil's Knot [драма, триллер, криминал, 2013] BDRip 1080p, Avo

Dracon

51 | 7

10.26 ГБ


Начать новую тему Ответить на тему  [ 1 сообщение ] 




Для Мосгорсуда, Роскомнадзора и рекламодателей:: mosgorsud-torrent[собачка]yandex.ru