Торрент файл
скачать торрент магнет ссылка Добавлен: 15 янв 2012, 23:46
Размер: 2.37 ГБ
Сидеров: 7
Личеров: 7
Автор

СообщениеДобавлено: 15 янв 2012, 23:46 

Не в сети
Супермодератор
Аватара пользователя
Дата регистрации:
11 апр 2010, 18:10
Спасибо: 5802 / 7
Сообщения: 56779
Американский оборотень в Лондоне / An American Werewolf in London

Перевод: Профессиональный (многоголосый, закадровый), cубтитры: Русские, Английские (полные, отключаемые)
Формат: HDRip, MKV, H.264, AC3
Страна: США, Великобритания
Режиссер: Джон Лэндис
Жанр: ужасы, фэнтези
Продолжительность: 01:37:31
Год выпуска: 1981
В ролях: Дэвид Нотон, Дженни Агаттер, Гриффин Данн, Джон Вудвайн, Лила Кэй, Джо Белчер, Дэвид Скофилд, Брайан Гловер, Рик Майял, Шон Бэйкер
Описание: Есть в старушке Англии лихие, жуткие места, путешествовать по которым чрезвычайно опасно… И наших героев, двух беззаботных американских туристов, об этом предупредили. Но веселые заокеанские парни не вняли предостережениям местных жителей и в глухой ночи, освещаемой мертвым светом луны, сошли с дороги.
Здесь, во мраке, их ждал неописуемый кошмар, после которого одному из американцев было суждено стать ужасным призраком, а другому-кровожадным оборотнем!


Видео: 1280x696 (16:9), 23,976 fps, MPEG4 AVC (х264), High@L4.1 ~2900kbps avg, 0.136
Аудио#1:Русский: 48 kHz,AC-3, 2 ch, ~192.00 kbps avg [Профессиональный (многоголосый, закадровый)(Universal Pictures)]
Аудио#2:Русский: 48 kHz,AC-3, 6 ch, ~448.00 kbps avg [Внешним файлом:Авторский (одноголосый) (Андрей Гаврилов)]


Автор РИПа:
Награды:
Оскар, 1982 год
Победитель (1):
Лучший грим

Общее
Уникальный идентификатор : 231442747205369242467694269884912237193 (0xAE1E40711384DD30A0881E16941DFA89)
Полное имя : f:\Downloads\an_american_werewolf_in_london_[tfile.ru]\an_american_werewolf_in_london_[tfile.ru].mkv
Формат : Matroska
Размер файла : 2,07 Гбайт
Продолжительность : 1 ч. 37 м.
Общий поток : 3036 Кбит/сек
Название фильма : An American Werewolf in London (1981)
Дата кодирования : UTC 2011-09-30 13:29:57
Программа кодирования : mkvmerge v4.6.0 ('Still Crazy After All These Years') сборка от Mar 10 2011 02:50:32
Библиотека кодирования : libebml v1.2.0 + libmatroska v1.1.0

Видео
Идентификатор : 1
Формат : AVC
Формат/Информация : Advanced Video Codec
Профиль формата : High@L4.1
Параметр CABAC формата : Да
Параметр ReFrames формата : 3 кадра
Режим смешивания : Header stripping
Идентификатор кодека : V_MPEG4/ISO/AVC
Продолжительность : 1 ч. 37 м.
Битрейт : 2900 Кбит/сек
Ширина : 1280 пикс.
Высота : 696 пикс.
Соотношение сторон : 16:9
Режим частоты кадров : Переменный
Частота кадров : 23,976 кадр/сек
Цветовое пространство : YUV
Подвыборка цветности : 4:2:0
Битовая глубина : 8 бит
Тип развёртки : Прогрессивная
Бит/(Пиксели*Кадры) : 0.136
Размер потока : 1,90 Гбайт (92%)
Библиотека кодирования : x264 core 116 r2019M 9cc407d
Настройки программы : cabac=1 / ref=3 / deblock=1:-1:-1 / analyse=0x3:0x133 / me=hex / subme=7 / psy=1 / psy_rd=1.00:0.15 / mixed_ref=1 / me_range=16 / chroma_me=1 / trellis=1 / 8x8dct=1 / cqm=0 / deadzone=21,11 / fast_pskip=1 / chroma_qp_offset=-3 / threads=8 / sliced_threads=0 / nr=0 / decimate=1 / interlaced=0 / bluray_compat=0 / constrained_intra=0 / bframes=3 / b_pyramid=1 / b_adapt=2 / b_bias=0 / direct=3 / weightb=1 / open_gop=0 / weightp=2 / keyint=230 / keyint_min=23 / scenecut=40 / intra_refresh=0 / rc_lookahead=40 / rc=abr / mbtree=1 / bitrate=2900 / ratetol=1.0 / qcomp=0.60 / qpmin=10 / qpmax=51 / qpstep=4 / vbv_maxrate=31250 / vbv_bufsize=31250 / nal_hrd=none / ip_ratio=1.40 / aq=1:1.00
Язык : English

Аудио
Идентификатор : 2
Формат : AC-3
Формат/Информация : Audio Coding 3
Расширение режима : CM (complete main)
Режим смешивания : Header stripping
Идентификатор кодека : A_AC3
Продолжительность : 1 ч. 37 м.
Вид битрейта : Постоянный
Битрейт : 192 Кбит/сек
Каналы : 2 канала
Расположение каналов : Front: L R
Частота : 48,0 КГц
Битовая глубина : 16 бит
Метод сжатия : С потерями
Размер потока : 134 Мбайт (6%)
Заголовок : MVO
Язык : Russian

Текст #1
Идентификатор : 3
Формат : UTF-8
Идентификатор кодека : S_TEXT/UTF8
Идентификатор кодека/Информация : UTF-8 Plain Text
Язык : Russian

Текст #2
Идентификатор : 4
Формат : UTF-8
Идентификатор кодека : S_TEXT/UTF8
Идентификатор кодека/Информация : UTF-8 Plain Text
Язык : English
















Поделиться:




реклама партнёра


Вернуться к началу
 Профиль Отправить личное сообщение  
 
   Похожие торренты   Автор   Торрент   Размер 
В этой теме нет новых непрочитанных сообщений. Моя мама - оборотень / My Mom's a Werewolf [Ужасы, комедия, 1989] DVDRip, Avo

salma3

12 | 3

746.95 МБ

В этой теме нет новых непрочитанных сообщений. Американский бургер / American Burger [ужасы, комедия, 2014] DVDRip, Dvo

salma3

32 | 1

1.36 ГБ

В этой теме нет новых непрочитанных сообщений. Американский герой / American Hero [фантастика, боевик, комедия, 2015] HDRip, Avo

salma3

4449 | 174

1.37 ГБ

В этой теме нет новых непрочитанных сообщений. Американский герой / American Hero (Ник Лав / Nick Love) [2015, Фантастика, боевик, комедия, HDRip] avo

Nickolas3435

257 | 10

1.2 ГБ

В этой теме нет новых непрочитанных сообщений. Американский бизон / American Buffalo [драма, 1996] BDRip 720p, Dvo

salma3

14 | 5

4.37 ГБ

В этой теме нет новых непрочитанных сообщений. Американский самурай / American Samurai [Боевик, 1992] DVDRip, Avo [Гаврилов]

salma3

2 | 3

1.47 ГБ

В этой теме нет новых непрочитанных сообщений. Американский якудза / American Yakuza [Боевик, 1993] DVDRip, Mvo+2Avo

salma3

51 | 6

1.47 ГБ


Начать новую тему Ответить на тему  [ 1 сообщение ] 




Для Мосгорсуда, Роскомнадзора и рекламодателей:: mosgorsud-torrent[собачка]yandex.ru