Торрент файл
скачать торрент магнет ссылка Добавлен: 15 янв 2012, 23:44
Размер: 2.1 ГБ
Сидеров: 26
Личеров: 8
Автор

СообщениеДобавлено: 15 янв 2012, 23:44 

Не в сети
Супермодератор
Аватара пользователя
Дата регистрации:
11 апр 2010, 18:10
Спасибо: 5801 / 7
Сообщения: 56779
У холмов есть глаза / The Hills Have Eyes



Перевод: Профессиональный (полное дублирование),субтитры: отсутствуют
Формат: HDRip-AVC, MKV, H.264, AC3
Страна: США
Жанр: ужасы, триллер
Продолжительность: 01:48:00
Режиссер: Александр Ажа / Alexandre Aja
Год выпуска: 2006

В ролях: Аарон Стэнфорд, Кэтлин Куинлен, Винесса Шоу, Эмили де Рэйвин, Дэн Берд, Том Бауэр, Билли Драго, Роберт Джой, Тед Левайн, Десмонд Аскью

Описание:Путешествуя по Америке в доме на колесах, семейство Картеров, попав в аварию, оказывается в таинственной ядерной зоне, отрезанной от цивилизации. Однако со временем Картеры обнаруживают, что на этой вроде бы пустынной территории обитает кровожадная семейка мутантов, которые начинают вести охоту на них…

________

Видео: 1280x 544 (2:35:1),23,976 кадр/сек, AVC (х264),High@L3.1, ~2392 Kbps, 0.143 bit/pixel
Аудио: 48 kHz, AC3 Dolby Digital, 3/2 (L,C,R,l,r) + LFE ch, ~384 kbps


Автор РИПа:ddimmon22

Общее
Уникальный идентификатор: 234808062626069695946642713650259452218 (0xB0A6634D61DE03E1B82474A008EA613A)
Полное имя: I:\РИПЫ\the_hills_have_eyes_[tfile.ru].mkv
Формат: Matroska
Версия формата: Version 2
Размер файла: 2,10 Гбайт
Продолжительность: 1 ч. 48 м.
Общий поток: 2777 Кбит/сек
Дата кодирования: UTC 2011-10-07 11:48:22
Программа кодирования: mkvmerge v4.9.1 ('Ich will') сборка от Aug 10 2011 09:31:20
Библиотека кодирования: libebml v1.2.1 + libmatroska v1.2.0

Видео
Идентификатор: 1
Формат: AVC
Формат/Информация: Advanced Video Codec
Профиль формата: High@L3.1
Параметр CABAC формата: Да
Параметр ReFrames формата: 4 кадра
Идентификатор кодека: V_MPEG4/ISO/AVC
Продолжительность: 1 ч. 48 м.
Битрейт: 2392 Кбит/сек
Ширина: 1280 пикс.
Высота: 544 пикс.
Соотношение сторон: 2,35:1
Частота кадров: 23,976 кадр/сек
Цветовое пространство: YUV
Подвыборка цветности: 4:2:0
Битовая глубина: 8 бит
Тип развёртки: Прогрессивная
Бит/(Пиксели*Кадры): 0.143
Размер потока: 1,77 Гбайт (84%)
Библиотека кодирования: x264 core 116 r2074 2641b9e
Настройки программы: cabac=1 / ref=3 / deblock=1:0:0 / analyse=0x3:0x113 / me=hex / subme=7 / psy=1 / psy_rd=1.00:0.00 / mixed_ref=1 / me_range=16 / chroma_me=1 / trellis=1 / 8x8dct=1 / cqm=0 / deadzone=21,11 / fast_pskip=1 / chroma_qp_offset=-2 / threads=6 / sliced_threads=0 / nr=0 / decimate=1 / interlaced=0 / bluray_compat=0 / constrained_intra=0 / bframes=3 / b_pyramid=2 / b_adapt=1 / b_bias=0 / direct=1 / weightb=1 / open_gop=0 / weightp=2 / keyint=250 / keyint_min=23 / scenecut=40 / intra_refresh=0 / rc_lookahead=40 / rc=2pass / mbtree=1 / bitrate=2392 / ratetol=1.0 / qcomp=0.60 / qpmin=0 / qpmax=69 / qpstep=4 / cplxblur=20.0 / qblur=0.5 / ip_ratio=1.40 / aq=1:1.00

Аудио
Идентификатор: 2
Формат: AC-3
Формат/Информация: Audio Coding 3
Расширение режима: CM (complete main)
Идентификатор кодека: A_AC3
Продолжительность: 1 ч. 48 м.
Вид битрейта: Постоянный
Битрейт: 384 Кбит/сек
Каналы: 6 каналов
Расположение каналов: Front: L C R, Side: L R, LFE
Частота: 48,0 КГц
Битовая глубина: 16 бит
Метод сжатия: С потерями
Размер потока: 298 Мбайт (14%)











Поделиться:




реклама партнёра


Вернуться к началу
 Профиль Отправить личное сообщение  
 
   Похожие торренты   Автор   Торрент   Размер 
В этой теме нет новых непрочитанных сообщений. Глаза звезды / Звездные глаза / Starry Eyes [ужасы, 2014] WEB-DL 720p, dvo

Dracon

80 | 4

2.9 ГБ

В этой теме нет новых непрочитанных сообщений. Глаза звезды / Звездные глаза / Starry Eyes [ужасы, 2014] WEB-DLRip, dvo

Dracon

249 | 12

1.4 ГБ

В этой теме нет новых непрочитанных сообщений. Глаза звезды / Starry Eyes (Кевин Колш, Деннис Уидмайер) [ужасы, 2014] HDRip, dvo

Dracon

6 | 2

1.36 ГБ

В этой теме нет новых непрочитанных сообщений. Глаза моей матери / The Eyes of My Mother [ужасы, триллер, драма, 2016] WEB-DLRip, Avo

salma3

282 | 49

1.35 ГБ

В этой теме нет новых непрочитанных сообщений. Крысы / Смертельные глаза / Deadly Eyes [ужасы, фантастика, 1982] BDRemux 1080p, 4Avo+Sub

salma3

5 | 3

22.21 ГБ

В этой теме нет новых непрочитанных сообщений. Глаза ангела / Angel Eyes [Триллер, Мелодрама, 2001] DVDRip, Mvo

salma3

0 | 2

1.37 ГБ

В этой теме нет новых непрочитанных сообщений. Глаза Токио / Tokyo Eyes [Триллер, комедия, 1998] DVDRip, Dvo

salma3

9 | 4

1.46 ГБ


Начать новую тему Ответить на тему  [ 1 сообщение ] 




Для Мосгорсуда, Роскомнадзора и рекламодателей:: mosgorsud-torrent[собачка]yandex.ru