Торрент файл
скачать торрент магнет ссылка Добавлен: 15 янв 2012, 23:43
Размер: 1.45 ГБ
Сидеров: 66
Личеров: 11
Автор

СообщениеДобавлено: 15 янв 2012, 23:43 

Не в сети
Супермодератор
Аватара пользователя
Дата регистрации:
11 апр 2010, 18:10
Спасибо: 5802 / 7
Сообщения: 56779
Зловещие мертвецы 3: Армия тьмы /Army of Darkness



Перевод: Профессиональный (многоголосый, закадровый).субтитры: отсутствуют
Формат: HDRip-AVC, MKV, H.264, AC3
Страна: США
Жанр: ужасы, фэнтези, боевик, комедия
Продолжительность: 01:20:00
Режиссер: Сэм Рэйми / Sam Raimi
Год выпуска: 1992

В ролях: Брюс Кэмпбелл, Эмбет Дэвидц, Маркус Гилберт, Йен Эберкромби, Ричард Гроув, Тимоти Патрик Куилл, Майкл ЭрлРейд, Бриджит Фонда, Патриция Таллман, Тед Рейми

Описание:По воле случая Эш переносится в далекое прошлое. Вместе со своим автомобилем и двухстволкой он оказывается в 13 веке. В этом мрачном средневековье люди страдают от сил тьмы. Бедняга Эш был пойман добропорядочными гражданами и помещен в местную тюрьму. Он с трудом смог убедить судью, в том, что он вовсе не шпион из враждебного королевства. Он решает помочь людям в битве с врагами.

Чтобы победить, он должен восстановить Некрономикон, старинную магическую книгу, которая поможет ему вернуться в свое время. По неосторожности Эш выпустил на волю Армию тьмы. Как победить живых мертвецов?


________

Видео: 832 x 448 (1:85:7),23,976 кадр/сек, AVC (х264), High@L3.1, ~2383Kbps, 0.267 bit/pixel
Аудио: 48 kHz, AC3 Dolby Digital, 2/0 (L,R) ch, ~192 kbps


Автор РИПа:ddimmon22
Общее
Уникальный идентификатор: 228282175970977148008449845413558069250 (0xABBD8C3FB772EEB99864EC175F97A802)
Полное имя: I:\oktzbr rupu\zlovesch'ie_mertvecy_[tfile.ru].mkv
Формат: Matroska
Версия формата: Version 2
Размер файла: 1,45 Гбайт
Продолжительность: 1 ч. 20 м.
Общий поток: 2570 Кбит/сек
Дата кодирования: UTC 2011-10-11 19:46:36
Программа кодирования: mkvmerge v4.9.1 ('Ich will') сборка от Aug 10 2011 09:31:20
Библиотека кодирования: libebml v1.2.1 + libmatroska v1.2.0

Видео
Идентификатор: 1
Формат: AVC
Формат/Информация: Advanced Video Codec
Профиль формата: High@L3.1
Параметр CABAC формата: Да
Параметр ReFrames формата: 8 кадров
Идентификатор кодека: V_MPEG4/ISO/AVC
Продолжительность: 1 ч. 20 м.
Битрейт: 2383 Кбит/сек
Ширина: 832 пикс.
Высота: 448 пикс.
Соотношение сторон: 1,857
Частота кадров: 23,976 кадр/сек
Цветовое пространство: YUV
Подвыборка цветности: 4:2:0
Битовая глубина: 8 бит
Тип развёртки: Прогрессивная
Бит/(Пиксели*Кадры): 0.267
Размер потока: 1,32 Гбайт (91%)
Библиотека кодирования: x264 core 116 r2074 2641b9e
Настройки программы: cabac=1 / ref=8 / deblock=1:-1:-1 / analyse=0x3:0x133 / me=umh / subme=7 / psy=1 / psy_rd=1.00:0.10 / mixed_ref=1 / me_range=16 / chroma_me=1 / trellis=2 / 8x8dct=1 / cqm=0 / deadzone=21,11 / fast_pskip=0 / chroma_qp_offset=-3 / threads=12 / sliced_threads=0 / nr=0 / decimate=1 / interlaced=0 / bluray_compat=0 / constrained_intra=0 / bframes=3 / b_pyramid=2 / b_adapt=2 / b_bias=0 / direct=3 / weightb=1 / open_gop=0 / weightp=2 / keyint=250 / keyint_min=23 / scenecut=40 / intra_refresh=0 / rc_lookahead=50 / rc=2pass / mbtree=1 / bitrate=2383 / ratetol=1.0 / qcomp=0.60 / qpmin=0 / qpmax=69 / qpstep=4 / cplxblur=20.0 / qblur=0.5 / ip_ratio=1.40 / aq=1:1.00

Аудио
Идентификатор: 2
Формат: AC-3
Формат/Информация: Audio Coding 3
Расширение режима: CM (complete main)
Идентификатор кодека: A_AC3
Продолжительность: 1 ч. 20 м.
Вид битрейта: Постоянный
Битрейт: 192 Кбит/сек
Каналы: 2 канала
Расположение каналов: Front: L R
Частота: 48,0 КГц
Битовая глубина: 16 бит
Метод сжатия: С потерями
Размер потока: 111 Мбайт (7%)













Поделиться:




реклама партнёра


Вернуться к началу
 Профиль Отправить личное сообщение  
 
   Похожие торренты   Автор   Торрент   Размер 
В этой теме нет новых непрочитанных сообщений. Зловещие мертвецы 3: Армия тьмы / Army of Darkness [ужасы, фэнтези, боевик, комедия, 1992] BDRip 720p, Dvo

salma3

15 | 5

6.64 ГБ

В этой теме нет новых непрочитанных сообщений. Зловещие мертвецы 2 / Evil Dead II [ужасы, фэнтези, 1987] BDRip 720p, 3Mvo

salma3

7 | 7

6.93 ГБ

В этой теме нет новых непрочитанных сообщений. Зловещие мертвецы: Черная книга / Evil Dead [ужасы, 2013] HDRip-AVC, Dub [Лицензия]

Dracon

4 | 2

1.45 ГБ

В этой теме нет новых непрочитанных сообщений. Армия проклятых / Army of the Damned [Ужасы, 2014] HDRip, avo

Dracon

1127 | 53

738.24 МБ

В этой теме нет новых непрочитанных сообщений. Папашина армия / Dad's Army [Комедия, 2016] HDRip, Dub [Лицензия]

salma3

65 | 4

1.46 ГБ

В этой теме нет новых непрочитанных сообщений. Хранитель тьмы / Keeper of Darkness [ужасы, триллер, 2015] HDRip-AVC, Avo

salma3

209 | 6

828.55 МБ

В этой теме нет новых непрочитанных сообщений. Зловещие мертвецы / The Evil Dead [ужасы, 1981] BDRip 720p, Mvo

salma3

7 | 6

6.48 ГБ


Начать новую тему Ответить на тему  [ 1 сообщение ] 




Для Мосгорсуда, Роскомнадзора и рекламодателей:: mosgorsud-torrent[собачка]yandex.ru