Торрент файл
скачать торрент магнет ссылка Добавлен: 15 янв 2012, 23:43
Размер: 2.09 ГБ
Сидеров: 16
Личеров: 12
Автор

СообщениеДобавлено: 15 янв 2012, 23:43 

Не в сети
Супермодератор
Аватара пользователя
Дата регистрации:
11 апр 2010, 18:10
Спасибо: 5801 / 7
Сообщения: 56779
Дракула /Dracula



Перевод: Профессиональный (полное дублирование).субтитры: отсутствуют
Формат: HDRip-AVC, MKV, H.264, AC3
Страна: США
Жанр: ужасы, фэнтези, мелодрама
Продолжительность: 02:07:00
Режиссер: Френсис Форд Коппола / Francis Ford Coppola
Год выпуска: 1992

В ролях: Гари Олдман, Вайнона Райдер, Энтони Хопкинс, Киану Ривз, Ричард Э. Грант, Кэри Элвис, Билл Кэмпбелл, Сэди Фрост, Том Уэйтс, Моника Беллуччи

Описание:Конец XIX века, Лондон. Молодой юрист Джонатан Харкер и красавица девушка Мина любят друг друга. Джонатан на время вынужден оставить невесту одну и отправиться по делам в Трансильванию к графу Дракуле, желающему приобрести недвижимость в столице Англии. Но Джонатан не знает, кто такой Дракула на самом деле…

________

Видео: 1152 x 624 (1:84:6),23,976 кадр/сек, AVC (х264), High@L4.0, ~1978Kbps, 0.115 bit/pixel
Аудио: 48 kHz, AC3 Dolby Digital, 3/2 (L,C,R,l,r) + LFE ch, ~384 kbps


Автор РИПа:ddimmon22
Общее
Уникальный идентификатор: 193854468922625363380049119102314043548 (0x91D7033D5DF71D6CA6D2D5F9FB6D589C)
Полное имя: I:\oktzbr rupu\bram_stoker's_dracula_[tfile.ru].mkv
Формат: Matroska
Версия формата: Version 2
Размер файла: 2,09 Гбайт
Продолжительность: 2 ч. 7 м.
Общий поток: 2352 Кбит/сек
Дата кодирования: UTC 2011-10-11 15:04:36
Программа кодирования: mkvmerge v4.9.1 ('Ich will') сборка от Aug 10 2011 09:31:20
Библиотека кодирования: libebml v1.2.1 + libmatroska v1.2.0

Видео
Идентификатор: 1
Формат: AVC
Формат/Информация: Advanced Video Codec
Профиль формата: High@L4.0
Параметр CABAC формата: Да
Параметр ReFrames формата: 8 кадров
Идентификатор кодека: V_MPEG4/ISO/AVC
Продолжительность: 2 ч. 7 м.
Битрейт: 1978 Кбит/сек
Ширина: 1152 пикс.
Высота: 624 пикс.
Соотношение сторон: 16:9
Частота кадров: 23,976 кадр/сек
Цветовое пространство: YUV
Подвыборка цветности: 4:2:0
Битовая глубина: 8 бит
Тип развёртки: Прогрессивная
Бит/(Пиксели*Кадры): 0.115
Размер потока: 1,71 Гбайт (82%)
Библиотека кодирования: x264 core 116 r2074 2641b9e
Настройки программы: cabac=1 / ref=8 / deblock=1:-1:-1 / analyse=0x3:0x133 / me=umh / subme=7 / psy=1 / psy_rd=1.00:0.10 / mixed_ref=1 / me_range=16 / chroma_me=1 / trellis=2 / 8x8dct=1 / cqm=0 / deadzone=21,11 / fast_pskip=0 / chroma_qp_offset=-3 / threads=12 / sliced_threads=0 / nr=0 / decimate=1 / interlaced=0 / bluray_compat=0 / constrained_intra=0 / bframes=3 / b_pyramid=2 / b_adapt=2 / b_bias=0 / direct=3 / weightb=1 / open_gop=0 / weightp=2 / keyint=250 / keyint_min=23 / scenecut=40 / intra_refresh=0 / rc_lookahead=50 / rc=2pass / mbtree=1 / bitrate=1978 / ratetol=1.0 / qcomp=0.60 / qpmin=0 / qpmax=69 / qpstep=4 / cplxblur=20.0 / qblur=0.5 / ip_ratio=1.40 / aq=1:1.00

Аудио
Идентификатор: 2
Формат: AC-3
Формат/Информация: Audio Coding 3
Расширение режима: CM (complete main)
Идентификатор кодека: A_AC3
Продолжительность: 2 ч. 7 м.
Вид битрейта: Постоянный
Битрейт: 384 Кбит/сек
Каналы: 6 каналов
Расположение каналов: Front: L C R, Side: L R, LFE
Частота: 48,0 КГц
Битовая глубина: 16 бит
Метод сжатия: С потерями
Размер потока: 350 Мбайт (16%)










Поделиться:




реклама партнёра


Вернуться к началу
 Профиль Отправить личное сообщение  
 
   Похожие торренты   Автор   Торрент   Размер 
В этой теме нет новых непрочитанных сообщений. Дракула / Dracula [ужасы, фэнтези, мелодрама, 1992] Blu-ray CEE 1080p, Dub+Sub

salma3

12 | 40

45.17 ГБ

В этой теме нет новых непрочитанных сообщений. Дракула / Dracula [ужасы, триллер, мелодрама, 2012] HDRip, Mvo [Лицензия]

salma3

288 | 20

1.46 ГБ

В этой теме нет новых непрочитанных сообщений. Дракула / Dracula Untold [ужасы, фэнтези, боевик, драма, военный, 2014] WEB-DLRip-AVC, Dub [iTunes]

Dracon

1286 | 56

1.46 ГБ

В этой теме нет новых непрочитанных сообщений. Дракула: Тёмный принц / Dracula: The Dark Prince (Тео Пирри) [Фэнтези, 2013] HDRip, avo

Dracon

12 | 4

1.35 ГБ

В этой теме нет новых непрочитанных сообщений. Дракула / Dracula Untold (Гари Шор) [2014, ужасы, фэнтези, боевик, драма, военный, WEB-DLRip | iTunes] Dub

Nickolas3435

6280 | 180

1.46 ГБ

В этой теме нет новых непрочитанных сообщений. Дракула / Dracula Untold [ужасы, фэнтези, боевик, драма, военный, 2014] BDRip 720p, Dub [iTunes]

Dracon

799 | 65

4.62 ГБ

В этой теме нет новых непрочитанных сообщений. Дракула / Dracula Untold (Гари Шор) [2014, ужасы, фэнтези, боевик, драма, военный, WEB-DL 720p | iTunes] Dub

Nickolas3435

9058 | 142

2.87 ГБ


Начать новую тему Ответить на тему  [ 1 сообщение ] 




Для Мосгорсуда, Роскомнадзора и рекламодателей:: mosgorsud-torrent[собачка]yandex.ru