Торрент файл
скачать торрент магнет ссылка Добавлен: 15 янв 2012, 23:42
Размер: 2.01 ГБ
Сидеров: 12
Личеров: 5
Автор

СообщениеДобавлено: 15 янв 2012, 23:42 

Не в сети
Супермодератор
Аватара пользователя
Дата регистрации:
11 апр 2010, 18:10
Спасибо: 5801 / 7
Сообщения: 56779
Сокровища ацтеков/ The Lost Treasure of the Grand Canyon



Перевод: Профессиональный (многоголосый, закадровый).субтитры: отсутствуют
Формат: HDRip-AVC, MKV, H.264, AC3
Страна: Канада
Жанр: ужасы, фэнтези, приключения
Продолжительность: 01:30:00
Режиссер: Фархад Манн / Farhad Mann
Год выпуска: 2008

В ролях: Майкл Шэнкс, Шэннен Доэрти, ДжейАр Борн, Тоби Бернер, Хезер Дорксен, Дункан Фрайзер, Питер Нью, Байрон Чиф-Мун, Алан С. Петерсон, Rob McConachie

Описание:Команда археологов под руководством доктора Джордана совершает удивительное открытие: в пещерах Гранд-Каньона находится древний, никому неизвестный город, полный тайн и сокровищ. Но не зря местные индейцы считают эту землю проклятой.

Город охраняют не только жестокие воины ацтеков, но и крылатое чудовище. Вместо сокровищ археологи находят смерть. Не дождавшись возвращения отца, Сьюзен Джордан решает отправиться на его поиски…


____

Видео: 1280 x 720 (1:77:7),23,976 кадр/сек, AVC (х264), High@L4.0, ~ 2998Kbps, 0.136 bit/pixel
Аудио: 48 kHz, AC3 Dolby Digital, 2/0 (L,R)ch, ~192 kbps


Автор РИПа:ddimmon22
Общее
Уникальный идентификатор: 245770728660066807023594052473548772928 (0xB8E5B877CD3E0419B084C74C3E2D1640)
Полное имя: I:\oktzbr rupu\lost_treasure_of_the_grand_canyon_[tfile.ru].mkv
Формат: Matroska
Версия формата: Version 2
Размер файла: 2,01 Гбайт
Продолжительность: 1 ч. 30 м.
Общий поток: 3192 Кбит/сек
Дата кодирования: UTC 2011-10-12 22:11:30
Программа кодирования: mkvmerge v4.9.1 ('Ich will') сборка от Aug 10 2011 09:31:20
Библиотека кодирования: libebml v1.2.1 + libmatroska v1.2.0

Видео
Идентификатор: 1
Формат: AVC
Формат/Информация: Advanced Video Codec
Профиль формата: High@L4.0
Параметр CABAC формата: Да
Параметр ReFrames формата: 8 кадров
Идентификатор кодека: V_MPEG4/ISO/AVC
Продолжительность: 1 ч. 30 м.
Битрейт: 2998 Кбит/сек
Ширина: 1280 пикс.
Высота: 720 пикс.
Соотношение сторон: 16:9
Частота кадров: 23,976 кадр/сек
Цветовое пространство: YUV
Подвыборка цветности: 4:2:0
Битовая глубина: 8 бит
Тип развёртки: Прогрессивная
Бит/(Пиксели*Кадры): 0.136
Размер потока: 1,85 Гбайт (92%)
Библиотека кодирования: x264 core 116 r2074 2641b9e
Настройки программы: cabac=1 / ref=8 / deblock=1:-1:-1 / analyse=0x3:0x133 / me=umh / subme=7 / psy=1 / psy_rd=1.00:0.10 / mixed_ref=1 / me_range=16 / chroma_me=1 / trellis=2 / 8x8dct=1 / cqm=0 / deadzone=21,11 / fast_pskip=0 / chroma_qp_offset=-3 / threads=12 / sliced_threads=0 / nr=0 / decimate=1 / interlaced=0 / bluray_compat=0 / constrained_intra=0 / bframes=3 / b_pyramid=2 / b_adapt=2 / b_bias=0 / direct=3 / weightb=1 / open_gop=0 / weightp=2 / keyint=250 / keyint_min=23 / scenecut=40 / intra_refresh=0 / rc_lookahead=50 / rc=2pass / mbtree=1 / bitrate=2998 / ratetol=1.0 / qcomp=0.60 / qpmin=0 / qpmax=69 / qpstep=4 / cplxblur=20.0 / qblur=0.5 / ip_ratio=1.40 / aq=1:1.00

Аудио
Идентификатор: 2
Формат: AC-3
Формат/Информация: Audio Coding 3
Расширение режима: CM (complete main)
Идентификатор кодека: A_AC3
Продолжительность: 1 ч. 30 м.
Вид битрейта: Постоянный
Битрейт: 192 Кбит/сек
Каналы: 2 канала
Расположение каналов: Front: L R
Частота: 48,0 КГц
Битовая глубина: 16 бит
Метод сжатия: С потерями
Размер потока: 124 Мбайт (6%)











Поделиться:




реклама партнёра


Вернуться к началу
 Профиль Отправить личное сообщение  
 
   Похожие торренты   Автор   Торрент   Размер 
В этой теме нет новых непрочитанных сообщений. Сокровища ацтеков / The Lost Treasure of the Grand Canyon [ужасы, фэнтези, приключения, 2008] BDRip, Mvo

salma3

112 | 35

1.45 ГБ

В этой теме нет новых непрочитанных сообщений. Сокровища государства / Treasure state (Эндрю Уист / Andrew Wiest) [2013г., приключения, WEB-DL 1080p] MVO

Alfredovich

12 | 0

2.13 ГБ

В этой теме нет новых непрочитанных сообщений. Пропащие ребята / The Lost Boys [ужасы, триллер, фэнтези, комедия, 1987] HDRip, Mvo

salma3

19 | 3

1.46 ГБ

В этой теме нет новых непрочитанных сообщений. Моцзинь: Забытая легенда / Mojin: The Lost Legend [приключения, ужасы, экшн, 2015] HDRip, Dvo

salma3

268 | 77

2.07 ГБ

В этой теме нет новых непрочитанных сообщений. Олли и сокровища пиратов / Dive Olly Dive and the Pirate Treasure [мультфильм, семейный, детский, 2014] DVD5, Dub [лицензия]

Dracon

48 | 31

3.27 ГБ

В этой теме нет новых непрочитанных сообщений. Олли и сокровища пиратов / Dive Olly Dive and the Pirate Treasure [мультфильм, семейный, детский, 2014] DVDRip, Dub [лицензия]

Dracon

767 | 24

1.46 ГБ

В этой теме нет новых непрочитанных сообщений. Олли и сокровища пиратов / Dive Olly Dive and the Pirate Treasure (Боб Дусетте, Гари Херст, Боб Бакстер) [мультфильм, семейный, детский, 2014] WEB-DLRip, Dub [лицензия]

Dracon

12 | 2

1.37 ГБ


Начать новую тему Ответить на тему  [ 1 сообщение ] 




Для Мосгорсуда, Роскомнадзора и рекламодателей:: mosgorsud-torrent[собачка]yandex.ru