Торрент файл
скачать торрент магнет ссылка Добавлен: 15 янв 2012, 23:42
Размер: 2.1 ГБ
Сидеров: 1
Личеров: 4
Автор

СообщениеДобавлено: 15 янв 2012, 23:42 

Не в сети
Супермодератор
Аватара пользователя
Дата регистрации:
11 апр 2010, 18:10
Спасибо: 5801 / 7
Сообщения: 56779
Месть мертвецов / Shallow Ground



Перевод: Профессиональный (многоголосый закадровый),субтитры: отсутствуют
Формат: HDRip-AVC, MKV, H.264, AC3
Страна: США
Жанр: ужасы, триллер
Продолжительность: 01:32:00
Режиссер: Шелдон Уилсон / Sheldon Wilson
Год выпуска: 2004

В ролях: Тимоти В. Мерфи, Стэн Кирш, Линдси Стоддарт, Патриция МакКормак, Рокки Маркетт, Натали Авитал, Крис Хендри, Тара Киллиан, Майрон Нэтвик ,Стив Истин.

Описание: Окровавленный подросток появляется на пороге полицейского участка спустя год после зверского убийства местной девушки, которое так и не было раскрыто. Теперь шериф Джек Шепперд, вопреки своим собственным страхам, должен установить истинную личность мальчика, а также ответить на вопрос: были ли еще жертвы?
Джек вскоре осознает, что его отчаянные попытки установить истину завели его на дорожку, на которой ему придется лицом к лицу столкнуться с невероятным ужасом……

________

Видео: 1280x696 (1:83:9),25,000 кадр/сек, AVC (х264), High@L3.1, ~ 2858 Kbps,0.128 bit/pixel
Аудио: 48 kHz, AC3 Dolby Digital, 3/2 (L,C,R,l,r) + LFE ch, ~384 kbps

Автор РИПа:ANDREY22W22
Общее
Уникальный идентификатор: 174594205812968285860174710210159179969 (0x83599EF3E7447DEE8BD46D33C33BF8C1)
Полное имя: E:\рипы\Shallow Ground (1).mkv
Формат: Matroska
Версия формата: Version 2
Размер файла: 2,10 Гбайт
Продолжительность: 1 ч. 32 м.
Общий поток: 3240 Кбит/сек
Дата кодирования: UTC 2011-10-14 17:13:03
Программа кодирования: mkvmerge v4.9.1 ('Ich will') зібрано Aug 10 2011 09:31:20
Библиотека кодирования: libebml v1.2.1 + libmatroska v1.2.0

Видео
Идентификатор: 1
Формат: AVC
Формат/Информация: Advanced Video Codec
Профиль формата: High@L3.1
Параметр CABAC формата: Да
Параметр ReFrames формата: 4 кадра
Идентификатор кодека: V_MPEG4/ISO/AVC
Продолжительность: 1 ч. 32 м.
Битрейт: 2858 Кбит/сек
Ширина: 1280 пикс.
Высота: 696 пикс.
Соотношение сторон: 16:9
Частота кадров: 25,000 кадр/сек
Цветовое пространство: YUV
Подвыборка цветности: 4:2:0
Битовая глубина: 8 бит
Тип развёртки: Прогрессивная
Бит/(Пиксели*Кадры): 0.128
Размер потока: 1,81 Гбайт (86%)
Библиотека кодирования: x264 core 116 r2074 2641b9e
Настройки программы: cabac=1 / ref=3 / deblock=1:-1:-1 / analyse=0x3:0x113 / me=hex / subme=7 / psy=1 / psy_rd=1.00:0.10 / mixed_ref=1 / me_range=16 / chroma_me=1 / trellis=1 / 8x8dct=1 / cqm=0 / deadzone=21,11 / fast_pskip=1 / chroma_qp_offset=-3 / threads=12 / sliced_threads=0 / nr=0 / decimate=1 / interlaced=0 / bluray_compat=0 / constrained_intra=0 / bframes=3 / b_pyramid=2 / b_adapt=1 / b_bias=0 / direct=3 / weightb=1 / open_gop=0 / weightp=2 / keyint=250 / keyint_min=25 / scenecut=40 / intra_refresh=0 / rc_lookahead=40 / rc=2pass / mbtree=1 / bitrate=2858 / ratetol=1.0 / qcomp=0.60 / qpmin=0 / qpmax=69 / qpstep=4 / cplxblur=20.0 / qblur=0.5 / ip_ratio=1.40 / aq=1:1.00

Аудио
Идентификатор: 2
Формат: AC-3
Формат/Информация: Audio Coding 3
Расширение режима: CM (complete main)
Идентификатор кодека: A_AC3
Продолжительность: 1 ч. 32 м.
Вид битрейта: Постоянный
Битрейт: 384 Кбит/сек
Каналы: 6 каналов
Расположение каналов: Front: L C R, Side: L R, LFE
Частота: 48,0 КГц
Битовая глубина: 16 бит
Метод сжатия: С потерями
Размер потока: 255 Мбайт (12%)








Поделиться:




реклама партнёра


Вернуться к началу
 Профиль Отправить личное сообщение  
 
   Похожие торренты   Автор   Торрент   Размер 
В этой теме нет новых непрочитанных сообщений. Пугало / Scarecrow (Шелдон Уилсон) [Ужасы, фантастика, 2013] HDRip, Mvo

Dracon

107 | 4

1.37 ГБ

В этой теме нет новых непрочитанных сообщений. Лощина / The Hollow (Шелдон Уилсон) [2015, Ужасы, WEB-DLRip-AVC] avo

Dracon

245 | 28

1.56 ГБ

В этой теме нет новых непрочитанных сообщений. Пугало / Scarecrow (Шелдон Уилсон) [Ужасы, фантастика, 2013] BDRip 1080p, Mvo

Dracon

33 | 2

6.67 ГБ

В этой теме нет новых непрочитанных сообщений. Пугало / Scarecrow (Шелдон Уилсон) [Ужасы, фантастика, 2013] BDRip 720p, Mvo

Dracon

23 | 4

4.48 ГБ

В этой теме нет новых непрочитанных сообщений. Shallow Ground - The End of Everything [2013, Thrash Metal, MP3]

PriZraK

0 | 1

136.49 МБ

В этой теме нет новых непрочитанных сообщений. Грешная земля / Unhallowed Ground [Ужасы, триллер, 2015] HDRip, Dvo

salma3

119 | 5

1.37 ГБ

В этой теме нет новых непрочитанных сообщений. Любовь Джульетты / Juliet in Love (Уилсон Йип / Wilson Yip) [2000г., Гонконг, драма, мелодрама, DVDRip] VO

Alfredovich

2 | 2

1.37 ГБ


Начать новую тему Ответить на тему  [ 1 сообщение ] 




Для Мосгорсуда, Роскомнадзора и рекламодателей:: mosgorsud-torrent[собачка]yandex.ru