Торрент файл
скачать торрент магнет ссылка Добавлен: 15 янв 2012, 23:41
Размер: 2.1 ГБ
Сидеров: 4
Личеров: 5
Автор

СообщениеДобавлено: 15 янв 2012, 23:41 

Не в сети
Супермодератор
Аватара пользователя
Дата регистрации:
11 апр 2010, 18:10
Спасибо: 5802 / 7
Сообщения: 56779
Мутанты/ Mimic



Перевод: Профессиональный (двухголосый),субтитры: отсутствуют
Формат: HDRip-AVC, MKV, H.264, AC3
Страна: США
Жанр: ужасы, фантастика, драма
Продолжительность: 01:45:00
Режиссер: Гильермо дель Торо / Guillermo del Toro
Год выпуска: 1997

В ролях: Мира Сорвино, Джереми Нортэм, Александр Гудвин, Джанкарло Джаннини, Чарльз С. Даттон, Джош Бролин, Аликс Коромзай, Ф. Мюррэй Абрахам, Джеймс Коста, Джейвон Барнвелл

Описание:Талантливая исследовательница вместе со своим мужем — сотрудником департамента здравоохранения — остановила страшную эпидемию, которая успела унести многие жизни. Но, используя генную инженерию, она нарушила природный баланс — и природа начинает мстить. Издавна в живой природе жертвы научились принимать облик своих врагов: гусеница походила на змею, крылья бабочки — на глаза совы… Но теперь Нечто начинает имитировать самого опасного охотника — человека, и последний сам становится дичью. Остановить злодейское Нечто могут только двое людей, которые вызвали его к жизни…

________

Видео: 1280 x 720 (1:77:7),23,976 кадр/сек, AVC (х264), High@L3.1, ~2470 Kbps, 0.112 bit/pixel
Аудио: 48 kHz, AC3 Dolby Digital, 3/2 (L,C,R,l,r) + LFE ch, ~384 kbps


Автор РИПа:ddimmon22
Общее
Уникальный идентификатор: 193791796839852072212204296529311983215 (0x91CAF14478CCBADA8F4344D6D24C666F)
Полное имя: I:\oktzbr rupu\mimic_[tfile.ru].mkv
Формат: Matroska
Версия формата: Version 2
Размер файла: 2,10 Гбайт
Продолжительность: 1 ч. 45 м.
Общий поток: 2848 Кбит/сек
Дата кодирования: UTC 2011-10-18 11:08:17
Программа кодирования: mkvmerge v4.9.1 ('Ich will') сборка от Aug 10 2011 09:31:20
Библиотека кодирования: libebml v1.2.1 + libmatroska v1.2.0

Видео
Идентификатор: 1
Формат: AVC
Формат/Информация: Advanced Video Codec
Профиль формата: High@L3.1
Параметр CABAC формата: Да
Параметр ReFrames формата: 5 кадров
Идентификатор кодека: V_MPEG4/ISO/AVC
Продолжительность: 1 ч. 45 м.
Битрейт: 2470 Кбит/сек
Ширина: 1280 пикс.
Высота: 720 пикс.
Соотношение сторон: 16:9
Частота кадров: 23,976 кадр/сек
Цветовое пространство: YUV
Подвыборка цветности: 4:2:0
Битовая глубина: 8 бит
Тип развёртки: Прогрессивная
Бит/(Пиксели*Кадры): 0.112
Размер потока: 1,78 Гбайт (85%)
Библиотека кодирования: x264 core 116 r2074 2641b9e
Настройки программы: cabac=1 / ref=5 / deblock=1:-1:-1 / analyse=0x3:0x113 / me=umh / subme=8 / psy=1 / psy_rd=1.00:0.10 / mixed_ref=1 / me_range=16 / chroma_me=1 / trellis=1 / 8x8dct=1 / cqm=0 / deadzone=21,11 / fast_pskip=1 / chroma_qp_offset=-3 / threads=12 / sliced_threads=0 / nr=0 / decimate=1 / interlaced=0 / bluray_compat=0 / constrained_intra=0 / bframes=3 / b_pyramid=2 / b_adapt=2 / b_bias=0 / direct=3 / weightb=1 / open_gop=0 / weightp=2 / keyint=250 / keyint_min=23 / scenecut=40 / intra_refresh=0 / rc_lookahead=50 / rc=2pass / mbtree=1 / bitrate=2470 / ratetol=1.0 / qcomp=0.60 / qpmin=0 / qpmax=69 / qpstep=4 / cplxblur=20.0 / qblur=0.5 / ip_ratio=1.40 / aq=1:1.00

Аудио
Идентификатор: 2
Формат: AC-3
Формат/Информация: Audio Coding 3
Расширение режима: CM (complete main)
Идентификатор кодека: A_AC3
Продолжительность: 1 ч. 45 м.
Вид битрейта: Постоянный
Битрейт: 384 Кбит/сек
Каналы: 6 каналов
Расположение каналов: Front: L C R, Side: L R, LFE
Частота: 48,0 КГц
Битовая глубина: 16 бит
Метод сжатия: С потерями
Размер потока: 290 Мбайт (13%)












Поделиться:




реклама партнёра


Вернуться к началу
 Профиль Отправить личное сообщение  
 
   Похожие торренты   Автор   Торрент   Размер 
В этой теме нет новых непрочитанных сообщений. Штамм / The Strain [S02] (Гильермо дель Торо, Дэвид Семел, Кит Гордон) [2015, ужасы, фантастика, драма, WEB-DL 1080p | BaibaKo]

Dracon

76 | 201

26.28 ГБ

В этой теме нет новых непрочитанных сообщений. Штамм / The Strain [S02] (Гильермо дель Торо, Дэвид Семел, Кит Гордон) [2015, ужасы, фантастика, драма, WEB-DLRip | BaibaKo]

Dracon

511 | 937

7.37 ГБ

В этой теме нет новых непрочитанных сообщений. Штамм / The Strain [01х01] (Гильермо дель Торо, Дэвид Семел, Кит Гордон) [2014, ужасы, фантастика, драма, HDTVRip | Kerob]

Nickolas3435

187 | 6

851.68 МБ

В этой теме нет новых непрочитанных сообщений. Штамм / The Strain [01х01-09 из 13] (Гильермо дель Торо, Дэвид Семел, Кит Гордон) [2014, ужасы, фантастика, драма, WEB-DL 720p | AlexFilm]

Nickolas3435

13 | 33

14.22 ГБ

В этой теме нет новых непрочитанных сообщений. Штамм / The Strain [01х01-02 из 13] (Гильермо дель Торо, Дэвид Семел, Кит Гордон) [2014, ужасы, фантастика, драма, WEB-DLRip | NewStudio]

Nickolas3435

208 | 130

1.27 ГБ

В этой теме нет новых непрочитанных сообщений. Штамм / The Strain [01х01-05 из 13] (Гильермо дель Торо, Дэвид Семел, Кит Гордон) [2014, ужасы, фантастика, драма, WEB-DLRip | LostFilm]

Nickolas3435

62 | 47

2.76 ГБ

В этой теме нет новых непрочитанных сообщений. Штамм / The Strain [01х01-04] (Гильермо дель Торо, Дэвид Семел, Кит Гордон) [2014, ужасы, фантастика, драма, HDTVRip | Kerob]

Nickolas3435

56 | 82

2.17 ГБ


Начать новую тему Ответить на тему  [ 1 сообщение ] 




Для Мосгорсуда, Роскомнадзора и рекламодателей:: mosgorsud-torrent[собачка]yandex.ru