Торрент файл
скачать торрент магнет ссылка Добавлен: 15 янв 2012, 23:41
Размер: 1.45 ГБ
Сидеров: 18
Личеров: 7
Автор

СообщениеДобавлено: 15 янв 2012, 23:41 

Не в сети
Супермодератор
Аватара пользователя
Дата регистрации:
11 апр 2010, 18:10
Спасибо: 5801 / 7
Сообщения: 56779
Мутанты 2 / Mimic 2



Перевод: Профессиональный (многоголосый, закадровый),субтитры: отсутствуют
Формат: DVDRip-AVC, MKV, H.264, AC3
Страна: США
Жанр: ужасы, фантастика, триллер
Продолжительность: 01:18:00
Режиссер: Жан Де Сегонзак /Jean De Segonzac
Год выпуска: 2001

В ролях: Аликс Коромзай, Бруно Кампос, Уилл Эстес, Гавен Е. Лукас, Эдвард Альберт, Джон Полито, Джоди Вуд, Джим О’Хейр, Брайан Лекнер, Пол Шульц

Описание:Когда почти все уже верили, что угроза миновала, гигантские монстры-насекомые появились вновь! Время затишья не прошло для них зря: они мутировали в новую, еще более совершенную форму, приняв облик своих главных врагов! И похоже, в этот раз от них не будет спасения…

________

Видео: 1008 x 424 (2:40:1), 25,000 кадр/сек, AVC (х264), High@L3.1, ~ 2262 Kbps,0.212 bit/pixel
Аудио: 48 kHz, AC3 Dolby Digital, 3/2 (L,C,R,l,r) + LFE ch, ~384 kbps


Автор РИПа:ddimmon22
Общее
Уникальный идентификатор: 193767064012085082239050063116472137581 (0x91C62DD84C264339BE144D958C47B76D)
Полное имя: I:\oktzbr rupu\mutanti_2_[tfile.ru].mkv
Формат: Matroska
Версия формата: Version 2
Размер файла: 1,45 Гбайт
Продолжительность: 1 ч. 18 м.
Общий поток: 2647 Кбит/сек
Дата кодирования: UTC 2011-10-18 09:00:44
Программа кодирования: mkvmerge v4.9.1 ('Ich will') сборка от Aug 10 2011 09:31:20
Библиотека кодирования: libebml v1.2.1 + libmatroska v1.2.0

Видео
Идентификатор: 1
Формат: AVC
Формат/Информация: Advanced Video Codec
Профиль формата: High@L3.1
Параметр CABAC формата: Да
Параметр ReFrames формата: 4 кадра
Идентификатор кодека: V_MPEG4/ISO/AVC
Продолжительность: 1 ч. 18 м.
Битрейт: 2262 Кбит/сек
Ширина: 1008 пикс.
Высота: 424 пикс.
Соотношение сторон: 2,40:1
Частота кадров: 25,000 кадр/сек
Цветовое пространство: YUV
Подвыборка цветности: 4:2:0
Битовая глубина: 8 бит
Тип развёртки: Прогрессивная
Бит/(Пиксели*Кадры): 0.212
Размер потока: 1,21 Гбайт (84%)
Библиотека кодирования: x264 core 116 r2074 2641b9e
Настройки программы: cabac=1 / ref=3 / deblock=1:0:0 / analyse=0x3:0x113 / me=hex / subme=7 / psy=1 / psy_rd=1.00:0.00 / mixed_ref=1 / me_range=16 / chroma_me=1 / trellis=1 / 8x8dct=1 / cqm=0 / deadzone=21,11 / fast_pskip=1 / chroma_qp_offset=-2 / threads=6 / sliced_threads=0 / nr=0 / decimate=1 / interlaced=0 / bluray_compat=0 / constrained_intra=0 / bframes=3 / b_pyramid=2 / b_adapt=1 / b_bias=0 / direct=1 / weightb=1 / open_gop=0 / weightp=2 / keyint=250 / keyint_min=25 / scenecut=40 / intra_refresh=0 / rc_lookahead=40 / rc=2pass / mbtree=1 / bitrate=2262 / ratetol=1.0 / qcomp=0.60 / qpmin=0 / qpmax=69 / qpstep=4 / cplxblur=20.0 / qblur=0.5 / ip_ratio=1.40 / aq=1:1.00

Аудио
Идентификатор: 2
Формат: AC-3
Формат/Информация: Audio Coding 3
Расширение режима: CM (complete main)
Идентификатор кодека: A_AC3
Продолжительность: 1 ч. 18 м.
Вид битрейта: Постоянный
Битрейт: 384 Кбит/сек
Каналы: 6 каналов
Расположение каналов: Front: L C R, Side: L R, LFE
Частота: 48,0 КГц
Битовая глубина: 16 бит
Метод сжатия: С потерями
Размер потока: 216 Мбайт (15%)











Поделиться:




реклама партнёра


Вернуться к началу
 Профиль Отправить личное сообщение  
 
   Похожие торренты   Автор   Торрент   Размер 
В этой теме нет новых непрочитанных сообщений. Земля против паука / Earth vs. the Spider [ужасы, фантастика, триллер, 2001] DVDRip, Mvo

salma3

11 | 5

1.37 ГБ

В этой теме нет новых непрочитанных сообщений. Операция «Мутанты» / Accion mutante [фантастика, боевик, комедия, 1992] DVDRip, Dvo

salma3

11 | 7

1.37 ГБ

В этой теме нет новых непрочитанных сообщений. Джейсон X / Jason X [ужасы, фантастика, триллер, 2001] WEB-DL 720p, Mvo

salma3

0 | 0

2.87 ГБ

В этой теме нет новых непрочитанных сообщений. Хранитель Душ / Soulkeeper [ужасы, фантастика, фэнтези, 2001] DVDRip, Dvo

salma3

25 | 6

2.05 ГБ

В этой теме нет новых непрочитанных сообщений. Гремучие змеи / Venomous [ужасы, фантастика, боевик, 2001] DVDRip, Dvo

salma3

6 | 6

1.37 ГБ

В этой теме нет новых непрочитанных сообщений. Шоссе 666 / Route 666 [ужасы, боевик, триллер, 2001] DVDRip-AVC, Mvo

salma3

34 | 4

1.46 ГБ

В этой теме нет новых непрочитанных сообщений. Бессмертные души / Soul Survivors [ Ужасы, Триллер, 2001] DVDRip-AVC, Mvo

salma3

1 | 2

1.46 ГБ


Начать новую тему Ответить на тему  [ 1 сообщение ] 




Для Мосгорсуда, Роскомнадзора и рекламодателей:: mosgorsud-torrent[собачка]yandex.ru