Торрент файл
скачать торрент магнет ссылка Добавлен: 15 янв 2012, 23:35
Размер: 2.2 ГБ
Сидеров: 31
Личеров: 5
Автор

СообщениеДобавлено: 15 янв 2012, 23:35 

Не в сети
Супермодератор
Аватара пользователя
Дата регистрации:
11 апр 2010, 18:10
Спасибо: 5799 / 7
Сообщения: 56779
Кладбище домашних животных / Pet Sematary

Перевод: Профессиональный (многоголосый, закадровый), cубтитры: отсутствуют

Формат: HDTVRip-AVC, MKV, х264, AC3
Страна: США

Режиссер: Мэри Ламберт

Жанр: ужасы, мистика, драма
Продолжительность: 01:38:00
Год выпуска: 1989

В ролях: Дэйл Мидкифф, Фред Гуинн, Дениз Кросби, Брэд Гринквист, Блэйз Бердал, Майко Хьюз, Майкл Ломбард

Описание: Доктор Луис Крид переезжает в маленький городок, где его семью ждет большой дом, а самого Луиса — скромная должность лечащего врача местного колледжа. Новая, просторная обитель четы Кридов расположена на краю густого, величественного леса. А в самом лесу — маленькое и мрачное кладбище, где местные жители хоронят своих домашних животных.
Несчастье приходит и в дом Кридов: кот Черч, домашний любимец, по нелепой случайности попадает под колеса грузовика. Гибель Черча повергает семью доктора в шок, и Луис решается на отчаянный шаг. Он хоронит кота на древнем, заброшенном индейском кладбище, обладающем, по легенде, таинственной воскрешающей силой. И однажды ночью погибший кот возвращается к хозяевам…




Видео: 1280x720 (16:9), 50.000 fps, AVC x264 (High@L4.1) ~2827 kbps avg, 0.061 bit/pixel
Аудио: 48 kHz, AC3 Dolby Digital, 3/2 (L,C,R,l,r) + LFE ch, ~384 kbps

Видео
Идентификатор: 1
Формат: AVC
Формат/Информация: Advanced Video Codec
Профиль формата: High@L4.1
Параметр CABAC формата: Да
Параметр ReFrames формата: 6 кадры
Параметры GOP формата: M=1, N=24
Идентификатор кодека: V_MPEG4/ISO/AVC
Продолжительность: 1 ч. 38 м.
Вид битрейта: Переменный
Битрейт: 2827 Кбит/сек
Максимальный битрейт: 15,0 Мбит/сек
Ширина: 1280 пикс.
Высота: 720 пикс.
Соотношение сторон: 16:9
Частота кадров: 50,000 кадр/сек
Цветовое пространство: YUV
Подвыборка цветности: 4:2:0
Битовая глубина: 8 бит
Тип развёртки: Прогрессивная
Бит/(Пиксели*Кадры): 0.061
Размер потока: 1,89 Гбайт (86%)
Заголовок: Кладбище домашних животных / Pet Sematary (1989) HDTVRip 720p от NOLIMITS-TEAM
Библиотека кодирования: x264 core 115 r1995 c1e60b9
Настройки программы: cabac=1 / ref=6 / deblock=1:0:0 / analyse=0x3:0x113 / me=umh / subme=8 / psy=1 / psy_rd=1.00:0.00 / mixed_ref=1 / me_range=16 / chroma_me=1 / trellis=1 / 8x8dct=1 / cqm=0 / deadzone=21,11 / fast_pskip=1 / chroma_qp_offset=-2 / threads=6 / sliced_threads=0 / slices=4 / nr=0 / decimate=1 / interlaced=0 / bluray_compat=1 / constrained_intra=0 / bframes=3 / b_pyramid=0 / b_adapt=1 / b_bias=0 / direct=3 / weightb=1 / open_gop=0 / weightp=1 / keyint=24 / keyint_min=1 / scenecut=40 / intra_refresh=0 / rc_lookahead=50 / rc=2pass / mbtree=1 / bitrate=2827 / ratetol=1.0 / qcomp=0.60 / qpmin=0 / qpmax=69 / qpstep=4 / cplxblur=20.0 / qblur=0.5 / vbv_maxrate=15000 / vbv_bufsize=15000 / nal_hrd=vbr / ip_ratio=1.10 / aq=1:1.00
Язык: English

Аудио
Идентификатор: 2
Формат: AC-3
Формат/Информация: Audio Coding 3
Расширение режима: CM (complete main)
Идентификатор кодека: A_AC3
Продолжительность: 1 ч. 38 м.
Вид битрейта: Постоянный
Битрейт: 384 Кбит/сек
Канал(ы): 6 канала(ов)
Расположение каналов: Front: L C R, Side: L R, LFE
Частота: 48,0 КГц
Битовая глубина: 16 бит
Метод сжатия: С потерями
Размер потока: 269 Мбайт (12%)
Заголовок: Многоголосый закадровый, Киномания
Язык: Russian










Поделиться:




реклама партнёра


Вернуться к началу
 Профиль Отправить личное сообщение  
 
   Похожие торренты   Автор   Торрент   Размер 
В этой теме нет новых непрочитанных сообщений. Сиеста / Siesta (Мэри Ламберт / Mary Lambert) [1987г., драма, триллер, экранизация, DVDRip]MVO

Alfredovich

0 | 4

1.37 ГБ

В этой теме нет новых непрочитанных сообщений. Эйс Вентура: Розыск домашних животных / Ace Ventura: Pet Detective [Комедия, 1994] BDRip 1080р, Dub+Mvo+Dvo+Avo+Sub

salma3

53 | 15

8.84 ГБ

В этой теме нет новых непрочитанных сообщений. Тайная жизнь домашних животных (Мультфильм, комедия, семейный, 2016) HDRip от Generalfilm | КПК | Чистый звук

marya111

0 | 0

359.82 МБ

В этой теме нет новых непрочитанных сообщений. Эйс Вентура: Розыск домашних животных / Ace Ventura: Pet Detective [комедия, детектив, приключения, 1994] BDRip, Dub [Варус Видео]

salma3

101 | 13

1.45 ГБ

В этой теме нет новых непрочитанных сообщений. Тайная жизнь домашних животных / The Secret Life of Pets [мультфильм, комедия, семейный, 2016] BDRip, Dub [iTunes]

salma3

192 | 22

1.41 ГБ

В этой теме нет новых непрочитанных сообщений. Тайная жизнь домашних животных / The Secret Life of Pets [мультфильм, комедия, семейный, 2016] BDRip-AVC, Dub [iTunes]

salma3

131 | 31

1.42 ГБ

В этой теме нет новых непрочитанных сообщений. Тайная жизнь домашних животных / The Secret Life of Pets (Мультфильм, комедия, семейный, 2016) HDRip от MegaPeer | Line

marya111

22 | 6

1.42 ГБ


Начать новую тему Ответить на тему  [ 1 сообщение ] 




Для Мосгорсуда, Роскомнадзора и рекламодателей:: mosgorsud-torrent[собачка]yandex.ru