Торрент файл
скачать торрент магнет ссылка Добавлен: 15 янв 2012, 23:33
Размер: 2.07 ГБ
Сидеров: 53
Личеров: 11
Автор

СообщениеДобавлено: 15 янв 2012, 23:33 

Не в сети
Супермодератор
Аватара пользователя
Дата регистрации:
11 апр 2010, 18:10
Спасибо: 5960 / 7
Сообщения: 56765
Дом призраков / Haunted

Перевод: Профессиональный (многоголосый, закадровый), cубтитры: отсутствуют
Формат: HDRip, MKV, H.264, AC3
Страна: США, Великобритания
Режиссер: Льюис Гилберт
Жанр: мистика, ужасы, драма, мелодрама, детектив
Продолжительность: 01:47:45
Год выпуска: 1995
В ролях: Эйдан Куинн, Кейт Бекинсейл, Энтони Эндрюс, Джон Гилгуд, Анна Мэсси, Алекс Лоу, Джеральдин Сомервилль, Виктория Шалет, Линда Бэссет, Лиз Смит
Описание: Дэвид преподает в Кембридже и пишет статьи, разоблачающие медиумов. Получив полное отчаяния письмо от старой няни, служащей в старинном поместье семейства Мэриэлл, Дэвид надеется быстро развеять ее страхи. А романтическое чувство, возникшее между ним и очаровательной Кристиной Мэриэлл, делает его пребывание в поместье очень приятным.
Но последующие события заставляют Дэвида усомниться в собственном душевном здоровье. Из ночной темноты до него доносится едва различимый шепот. Прямо из тьмы возникает нечто, обдавая лицо могильным холодом и оставляя за собой чувство леденящего ужаса…


Видео: 1176x720 (1,64:1), 24,000 fps, MPEG4 AVC (х264), High@L4.1 ~2400 kbps avg, 0.118 bit/pixel
Аудио#1:Русский: 48 kHz,AC-3, 2 ch, ~192.00 kbps avg [Профессиональный (многоголосый, закадровый)]
Аудио#2:Русский: 48 kHz,AC-3, 2 ch, ~192.00 kbps avg [Профессиональный (двухголосый)]


Автор РИПа:
Общее
Уникальный идентификатор : 240296399630522054492912170325522907866 (0xB4C7673557965DB796911C2DA76202DA)
Полное имя : f:\Downloads\haunted_[tfile.ru].mkv
Формат : Matroska
Версия формата : Version 2
Размер файла : 2,07 Гбайт
Продолжительность : 1 ч. 47 м.
Общий поток : 2754 Кбит/сек
Дата кодирования : UTC 2011-11-16 20:46:45
Программа кодирования : mkvmerge v4.6.0 ('Still Crazy After All These Years') сборка от Mar 10 2011 02:50:32
Библиотека кодирования : libebml v1.2.0 + libmatroska v1.1.0

Видео
Идентификатор : 1
Формат : AVC
Формат/Информация : Advanced Video Codec
Профиль формата : High@L4.1
Параметр CABAC формата : Да
Параметр ReFrames формата : 3 кадра
Режим смешивания : Header stripping
Идентификатор кодека : V_MPEG4/ISO/AVC
Продолжительность : 1 ч. 47 м.
Битрейт : 2400 Кбит/сек
Ширина : 1176 пикселей
Высота : 720 пикселей
Соотношение сторон : 1,640
Режим частоты кадров : Переменный
Частота кадров : 24,000 кадра/сек
Цветовое пространство : YUV
Субдискретизация насыщенности : 4:2:0
Битовая глубина : 8 бит
Тип развёртки : Прогрессивная
Бит/(Пиксели*Кадры) : 0.118
Размер потока : 1,74 Гбайт (84%)
Библиотека кодирования : x264 core 116 r2019M 9cc407d
Настройки программы : cabac=1 / ref=3 / deblock=1:-1:-1 / analyse=0x3:0x133 / me=hex / subme=7 / psy=1 / psy_rd=1.00:0.15 / mixed_ref=1 / me_range=16 / chroma_me=1 / trellis=1 / 8x8dct=1 / cqm=0 / deadzone=21,11 / fast_pskip=1 / chroma_qp_offset=-3 / threads=8 / sliced_threads=0 / nr=0 / decimate=1 / interlaced=0 / bluray_compat=0 / constrained_intra=0 / bframes=3 / b_pyramid=1 / b_adapt=2 / b_bias=0 / direct=3 / weightb=1 / open_gop=0 / weightp=2 / keyint=240 / keyint_min=24 / scenecut=40 / intra_refresh=0 / rc_lookahead=40 / rc=abr / mbtree=1 / bitrate=2400 / ratetol=1.0 / qcomp=0.60 / qpmin=10 / qpmax=51 / qpstep=4 / vbv_maxrate=31250 / vbv_bufsize=31250 / nal_hrd=none / ip_ratio=1.40 / aq=1:1.00
Язык : English
Default : Да
Forced : Нет

Аудио #1
Идентификатор : 2
Формат : AC-3
Формат/Информация : Audio Coding 3
Расширение режима : CM (complete main)
Режим смешивания : Header stripping
Идентификатор кодека : A_AC3
Продолжительность : 1 ч. 47 м.
Вид битрейта : Постоянный
Битрейт : 192 Кбит/сек
Каналы : 2 канала
Расположение каналов : Front: L R
Частота : 48,0 КГц
Битовая глубина : 16 бит
Метод сжатия : С потерями
Размер потока : 148 Мбайт (7%)
Заголовок : MVO
Язык : Russian
Default : Да
Forced : Нет

Аудио #2
Идентификатор : 3
Формат : AC-3
Формат/Информация : Audio Coding 3
Расширение режима : CM (complete main)
Режим смешивания : Header stripping
Идентификатор кодека : A_AC3
Продолжительность : 1 ч. 47 м.
Вид битрейта : Постоянный
Битрейт : 192 Кбит/сек
Каналы : 2 канала
Расположение каналов : Front: L R
Частота : 48,0 КГц
Битовая глубина : 16 бит
Метод сжатия : С потерями
Размер потока : 148 Мбайт (7%)
Заголовок : DVO
Язык : Russian
Default : Нет
Forced : Нет
















Поделиться:




реклама партнёра


Вернуться к началу
 Профиль Отправить личное сообщение  
 
   Похожие торренты   Автор   Торрент   Размер 
В этой теме нет новых непрочитанных сообщений. Дом призраков / Haunted [Мистика, драма, детектив, 1995] BDRip 720p, Mvo+Mvo

salma3

39 | 4

4.09 ГБ

В этой теме нет новых непрочитанных сообщений. Дом призраков / Haunted [ужасы, драма, детектив, 1995] BDRip, Dvo

salma3

32 | 3

748.3 МБ

В этой теме нет новых непрочитанных сообщений. Возвращение в дом ночных призраков / Return to House on Haunted Hill [Триллер, ужасы, мистика, 2007] BDRip, Mvo [ТНТ]

salma3

140 | 8

1.45 ГБ

В этой теме нет новых непрочитанных сообщений. Дом ночных призраков / House on Haunted Hill [ужасы, 1959] DVDRip, Dvo

salma3

16 | 2

1.35 ГБ

В этой теме нет новых непрочитанных сообщений. Призраки Бангкока / Bangkok Haunted [Ужасы, мистика, 2001] DVDRip, Dvo

salma3

3 | 1

1.37 ГБ

В этой теме нет новых непрочитанных сообщений. Эквус / Equus [Драма, детектив, мистика, 1977] HDRip, Mvo

salma3

46 | 10

1.33 ГБ

В этой теме нет новых непрочитанных сообщений. Скала Малхолланд / Mulholland Falls (Ли Тамахори) [1995, триллер, драма, криминал, детектив, HDRip] mvo

Nickolas3435

48 | 5

1.45 ГБ


Начать новую тему Ответить на тему  [ 1 сообщение ] 




Для Мосгорсуда, Роскомнадзора и рекламодателей:: mosgorsud-torrent[собачка]yandex.ru