Торрент файл
скачать торрент магнет ссылка Добавлен: 15 янв 2012, 23:31
Размер: 2.1 ГБ
Сидеров: 9
Личеров: 6
Автор

СообщениеДобавлено: 15 янв 2012, 23:31 

Не в сети
Супермодератор
Аватара пользователя
Дата регистрации:
11 апр 2010, 18:10
Спасибо: 5799 / 7
Сообщения: 56779
Стая / La Horde



Перевод:Любительский (одноголосый закадровый), субтитры: отсутствуют
Формат: HDRip-AVC, MKV, H.264, AC3
Страна: Франция
Жанр: ужасы, боевик, триллер,
Продолжительность: 01:41:39
Режиссер: Янник Даан, Бенжамен Роше / Yannick Dahan, Benjamin Rocher
Год выпуска: 2009

В ролях: Клод Перрон, Жан-Пьер Мартин, Эрик Эбонэ, Дуду Маста, Антуан Оппенхайм, Джо Престиа, Ив Пиньо.

Описание: Север Парижа. Собираясь отомстить за убийство сослуживца безжалостной бандой, четыре полицейских пробираются в здание, служащее гангстерам штаб-квартирой. Замеченные и пойманные, офицеры готовятся к казни, как вдруг случается невообразимое: в дом врывается стая кровожадных плотоядных существ, жестоко нападая на всех и каждого. Полицейским и бандитам приходится объединить усилия в отчаянной схватке.

____


Видео: 1 280x 544 (2:35:1), 23,976 кадр/сек, AVC (х264), High@L3.1, ~ 2 576Kbps,0.154 bit/pixel
Аудио: 48 kHz, AC3 Dolby Digital, 3/2 (L,C,R,l,r) + LFE ch, ~384 kbps

Автор РИПа:ANDREY22W22
Общее
Уникальный идентификатор: 235381368577268756112827198820558129140 (0xB114CD77CEF326629D14FC39F23D47F4)
Полное имя: E:\рипы\la_horde_[tfile.ru].mkv
Формат: Matroska
Версия формата: Version 2
Размер файла: 2,10 Гбайт
Продолжительность: 1 ч. 41 м.
Общий поток: 2959 Кбит/сек
Дата кодирования: UTC 2011-11-27 13:51:52
Программа кодирования: mkvmerge v4.9.1 ('Ich will') зібрано Aug 10 2011 09:31:20
Библиотека кодирования: libebml v1.2.1 + libmatroska v1.2.0

Видео
Идентификатор: 1
Формат: AVC
Формат/Информация: Advanced Video Codec
Профиль формата: High@L3.1
Параметр CABAC формата: Да
Параметр ReFrames формата: 4 кадра
Идентификатор кодека: V_MPEG4/ISO/AVC
Продолжительность: 1 ч. 41 м.
Битрейт: 2576 Кбит/сек
Ширина: 1280 пикс.
Высота: 544 пикс.
Соотношение сторон: 2,35:1
Частота кадров: 23,976 кадр/сек
Цветовое пространство: YUV
Подвыборка цветности: 4:2:0
Битовая глубина: 8 бит
Тип развёртки: Прогрессивная
Бит/(Пиксели*Кадры): 0.154
Размер потока: 1,79 Гбайт (85%)
Библиотека кодирования: x264 core 116 r2074 2641b9e
Настройки программы: cabac=1 / ref=3 / deblock=1:0:0 / analyse=0x3:0x113 / me=hex / subme=7 / psy=1 / psy_rd=1.00:0.00 / mixed_ref=1 / me_range=16 / chroma_me=1 / trellis=1 / 8x8dct=1 / cqm=0 / deadzone=21,11 / fast_pskip=1 / chroma_qp_offset=-2 / threads=12 / sliced_threads=0 / nr=0 / decimate=1 / interlaced=0 / bluray_compat=0 / constrained_intra=0 / bframes=3 / b_pyramid=2 / b_adapt=1 / b_bias=0 / direct=1 / weightb=1 / open_gop=0 / weightp=2 / keyint=250 / keyint_min=23 / scenecut=40 / intra_refresh=0 / rc_lookahead=40 / rc=2pass / mbtree=1 / bitrate=2576 / ratetol=1.0 / qcomp=0.60 / qpmin=0 / qpmax=69 / qpstep=4 / cplxblur=20.0 / qblur=0.5 / ip_ratio=1.40 / aq=1:1.00

Аудио
Идентификатор: 2
Формат: AC-3
Формат/Информация: Audio Coding 3
Расширение режима: CM (complete main)
Идентификатор кодека: A_AC3
Продолжительность: 1 ч. 41 м.
Вид битрейта: Постоянный
Битрейт: 384 Кбит/сек
Каналы: 6 каналов
Расположение каналов: Front: L C R, Side: L R, LFE
Частота: 48,0 КГц
Битовая глубина: 16 бит
Метод сжатия: С потерями
Размер потока: 279 Мбайт (13%)







Поделиться:




реклама партнёра


Вернуться к началу
 Профиль Отправить личное сообщение  
 
   Похожие торренты   Автор   Торрент   Размер 
В этой теме нет новых непрочитанных сообщений. Стая / The Horde [ужасы, боевик, 2016] WEB-DLRip, Avo

salma3

605 | 71

1.47 ГБ

В этой теме нет новых непрочитанных сообщений. Отряд / Antigang (Бенжамен Роше) [Боевик, драма, 2015] BDRip 1080p, Mvo

Dracon

339 | 33

11.21 ГБ

В этой теме нет новых непрочитанных сообщений. Уже мертв / Déjà mort (Оливье Даан / Olivier Dahan) [1998г., Франция, молодежная драма, DVDRip-AVC] DVO

Alfredovich

91 | 2

1015.69 МБ

В этой теме нет новых непрочитанных сообщений. Принцесса Монако / Grace of Monaco (Оливье Даан / Olivier Dahan) [2014г., драма, мелодрама, биография, WEB-DLRip] Dub [Чистый звук]

Alfredovich

1132 | 13

1.37 ГБ

В этой теме нет новых непрочитанных сообщений. Стая акул / Shark Swarm [ужасы, боевик, триллер, драма, 2008 ] DVDRip, Mvo

salma3

12 | 8

2.05 ГБ

В этой теме нет новых непрочитанных сообщений. Захваченный / Piege (Янник Сейлет) [Триллер, 2014] BDRip 720p, avo

Dracon

6 | 4

3.38 ГБ

В этой теме нет новых непрочитанных сообщений. Benjamin Booker - Benjamin Booker [2014, Garage, Blues Rock, MP3]

PriZraK

0 | 1

102.29 МБ


Начать новую тему Ответить на тему  [ 1 сообщение ] 




Для Мосгорсуда, Роскомнадзора и рекламодателей:: mosgorsud-torrent[собачка]yandex.ru