Торрент файл
скачать торрент магнет ссылка Добавлен: 15 янв 2012, 23:29
Размер: 1.37 ГБ
Сидеров: 62
Личеров: 11
Автор

СообщениеДобавлено: 15 янв 2012, 23:29 

Не в сети
Супермодератор
Аватара пользователя
Дата регистрации:
11 апр 2010, 18:10
Спасибо: 5801 / 7
Сообщения: 56779
[b]Человеческая многоножка 2 / The Human Centipede II (Full Sequence)[/b]

Перевод: Любительский (одноголосый)[den904], cубтитры: отсутствуют

Формат: HDRip, AVI, XviD, AC3

Страна: США, Великобритания, Нидерланды

Режиссер: Том Сикс

Жанр: ужасы, драма

Продолжительность: 01:27:59

Год выпуска: 2011

В ролях: Лорэнс Р.Харви, Эшлинн Йенни, Доминик Боррелли, Ли Николас Харрис, Кэтерин Темплар, Питер Бланкенштейн, Питер Чарлтон

Описание: История человека, который становится сексуально одержимым DVD-записью с первым фильмом и использует наждачную бумагу чтобы удовлетворять себя во время его просмотра. Он решает сам сделать человеческую многоножку, на этот раз состоящую из двенадцати жертв.

________

Видео: 720x400 (1.80:1), 23.976 fps, XviD build 50 ~1827 kbps avg, 0.26 bit/pixel

Аудио #1:Русский: 48 kHz, AC3 Dolby Digital, 2/0 (L,R) ch, ~192 kbps [Любительский (одноголосый)]
Аудио #2:Английский: 48 kHz, AC3 Dolby Digital, 2/0 (L,R) ch, ~192 kbps [Оригинал]

Доп. информация: Внимание!!!
Лицам до 18 лет просмотр фильма запрещён!
В фильме присутствует ненормативаная лексика!

Премьера (мир) 22 сентября 2011

Качество видео: HDRip исходник BDRip 720

General
Complete name: E:\The_Human_Centipede_HDRip_[tfile.ru].avi
Format: AVI
Format/Info: Audio Video Interleave
File size: 1.37 GiB
Duration: 1h 27mn
Overall bit rate: 2 226 Kbps
Writing application: VirtualDubMod 1.5.10.2 (build 2540/release)
Writing library: VirtualDubMod build 2540/release

Video
ID: 0
Format: MPEG-4 Visual
Format profile: Advanced Simple@L5
Format settings, BVOP: 1
Format settings, QPel: No
Format settings, GMC: No warppoints
Format settings, Matrix: Default (H.263)
Codec ID: XVID
Codec ID/Hint: XviD
Duration: 1h 27mn
Bit rate: 1 828 Kbps
Width: 720 pixels
Height: 400 pixels
Display aspect ratio: 16:9
Frame rate: 23.976 fps
Color space: YUV
Chroma subsampling: 4:2:0
Bit depth: 8 bits
Scan type: Progressive
Compression mode: Lossy
Bits/(Pixel*Frame): 0.265
Stream size: 1.12 GiB (82%)
Writing library: XviD 1.2.1 (UTC 2008-12-04)

Audio #1
ID: 1
Format: AC-3
Format/Info: Audio Coding 3
Mode extension: CM (complete main)
Codec ID: 2000
Duration: 1h 27mn
Bit rate mode: Constant
Bit rate: 192 Kbps
Channel(s): 2 channels
Channel positions: Front: L R
Sampling rate: 48.0 KHz
Bit depth: 16 bits
Compression mode: Lossy
Stream size: 121 MiB (9%)
Alignment: Split accross interleaves
Interleave, duration: 42 ms (1.00 video frame)
Interleave, preload duration: 500 ms

Audio #2
ID: 2
Format: AC-3
Format/Info: Audio Coding 3
Mode extension: CM (complete main)
Codec ID: 2000
Duration: 1h 27mn
Bit rate mode: Constant
Bit rate: 192 Kbps
Channel(s): 2 channels
Channel positions: Front: L R
Sampling rate: 48.0 KHz
Bit depth: 16 bits
Compression mode: Lossy
Stream size: 121 MiB (9%)
Alignment: Split accross interleaves
Interleave, duration: 42 ms (1.00 video frame)
Interleave, preload duration: 500 ms

















Поделиться:




реклама партнёра


Вернуться к началу
 Профиль Отправить личное сообщение  
 
   Похожие торренты   Автор   Торрент   Размер 
В этой теме нет новых непрочитанных сообщений. Человеческая многоножка 3 / The Human Centipede III (Final Sequence) (Том Сикс) [Ужасы, 2015] WEB-DLRip, dvo

Dracon

3 | 0

1.38 ГБ

В этой теме нет новых непрочитанных сообщений. Человеческая многоножка 3 / The Human Centipede III (Final Sequence) (Том Сикс) [Ужасы, 2015] WEB-DL 720p, dvo

Dracon

607 | 41

3.33 ГБ

В этой теме нет новых непрочитанных сообщений. Человеческая революция / Human Revolution (Мо Шариф) [2014, короткометражка, фантастика, боевик, WEB-DLRip 720] dvo

Nickolas3435

384 | 6

468.86 МБ

В этой теме нет новых непрочитанных сообщений. Человеческая революция / Human Revolution (Мо Шариф) [2014, короткометражка, фантастика, боевик, WEB-DLRip] dvo

Nickolas3435

877 | 10

229.63 МБ

В этой теме нет новых непрочитанных сообщений. Почти человек / Almost Human [ужасы, фантастика, 2013] HDRip, dvo

Dracon

107 | 8

1.47 ГБ

В этой теме нет новых непрочитанных сообщений. Быть Человеком / Being Human (USA) [S04] (Паоло Барзмен, Адам Кэйн, Стефан Плещински) [2014, ужасы, фантастика, фэнтези, драма, WEB-DLRip | LostFilm]

Dracon

12 | 2

7.57 ГБ

В этой теме нет новых непрочитанных сообщений. Neon Sky - Out of Body Sequence [2009, Eectronic, Industrial Rock, MP3]

PriZraK

1 | 1

57.49 МБ


Начать новую тему Ответить на тему  [ 1 сообщение ] 




Для Мосгорсуда, Роскомнадзора и рекламодателей:: mosgorsud-torrent[собачка]yandex.ru