Торрент файл
скачать торрент магнет ссылка Добавлен: 15 янв 2012, 23:29
Размер: 1.45 ГБ
Сидеров: 111
Личеров: 8
Автор

СообщениеДобавлено: 15 янв 2012, 23:29 

Не в сети
Супермодератор
Аватара пользователя
Дата регистрации:
11 апр 2010, 18:10
Спасибо: 5801 / 7
Сообщения: 56779
Готика / Gothika


Перевод: Профессиональный (полное дублирование), cубтитры: отсутствуют
Формат: HDRip-AVC, MKV, H.264, AC3
Страна: США
Режиссер: Матьё Кассовиц
Жанр: ужасы, триллер, детектив
Продолжительность: 01:38:07
Год выпуска: 2003

В ролях: Холли Берри, Роберт Дауни мл., Чарльз С. Даттон, Джон Кэрролл Линч ,Бернард Хилл, Пенелопа Крус, Дориан Хэрвуд, Бронуэн Мэнтел, Кэтлин Мэкки, Мэттью Дж. Тейлор

Описание: Фильм повествует о женщине-психиатре, которая однажды оказывается пациенткой больницы для невменяемых преступников, где она прежде работала.
Вдобавок ко всему, ее обвиняют в совершении жестокого убийства, о котором она ничего не помнит. Пытаясь разобраться в происходящем, она сталкивается с необъяснимыми мистическими происшествиями…




Видео: 880 x 480 (1:85:1), 23.976 fps, AVC (х264) High@L4.1, ~ 1736 Kbps, 0.171 bit/pixel
Аудио: 48 kHz, AC3 Dolby Digital, 3/2 (L,C,R,l,r) + LFE ch, ~384 kbps avg


Рип: jeenart

General
Unique ID: 221853477225462848013347447829856422548 (0xA6E76CEDED998884B72DC98284A68A94)
Complete name: F:\Мои релизы\Все релизы 10\gothika_[tfile.ru].mkv
Format: Matroska
File size: 1.45 GiB
Duration: 1h 38mn
Overall bit rate: 2 109 Kbps
Encoded date: UTC 2011-12-03 17:07:13
Writing application: mkvmerge v4.6.0 ('Still Crazy After All These Years') сборка от Apr1 2011 21:01:49
Writing library: libebml v1.2.0 + libmatroska v1.1.0

Video
ID: 1
Format: AVC
Format/Info: Advanced Video Codec
Format profile: High@L4.1
Format settings, CABAC: Yes
Format settings, ReFrames: 4 frames
Codec ID: V_MPEG4/ISO/AVC
Duration: 1h 38mn
Bit rate: 1 736 Kbps
Width: 880 pixels
Height: 480 pixels
Display aspect ratio: 16:9
Frame rate: 23.976 fps
Color space: YUV
Chroma subsampling: 4:2:0
Bit depth: 8 bits
Scan type: Progressive
Bits/(Pixel*Frame): 0.171
Stream size: 1.15 GiB (80%)
Writing library: x264 core 115 r1937 aa21558
Encoding settings: cabac=1 / ref=3 / deblock=1:-1:-1 / analyse=0x3:0x113 / me=hex / subme=7 / psy=1 / psy_rd=1.00:0.10 / mixed_ref=1 / me_range=16 / chroma_me=1 / trellis=1 / 8x8dct=1 / cqm=0 / deadzone=21,11 / fast_pskip=1 / chroma_qp_offset=-3 / threads=6 / sliced_threads=0 / nr=0 / decimate=1 / interlaced=0 / bluray_compat=0 / constrained_intra=0 / bframes=3 / b_pyramid=2 / b_adapt=1 / b_bias=0 / direct=3 / weightb=1 / open_gop=0 / weightp=2 / keyint=250 / keyint_min=23 / scenecut=40 / intra_refresh=0 / rc_lookahead=40 / rc=2pass / mbtree=1 / bitrate=1736 / ratetol=1.0 / qcomp=0.60 / qpmin=0 / qpmax=69 / qpstep=4 / cplxblur=20.0 / qblur=0.5 / ip_ratio=1.40 / aq=1:1.00

Audio
ID: 2
Format: AC-3
Format/Info: Audio Coding 3
Mode extension: CM (complete main)
Codec ID: A_AC3
Duration: 1h 38mn
Bit rate mode: Constant
Bit rate: 384 Kbps
Channel(s): 6 channels
Channel positions: Front: L C R, Side: L R, LFE
Sampling rate: 48.0 KHz
Bit depth: 16 bits
Compression mode: Lossy
Stream size: 270 MiB (18%)
















Поделиться:




реклама партнёра


Вернуться к началу
 Профиль Отправить личное сообщение  
 
   Похожие торренты   Автор   Торрент   Размер 
В этой теме нет новых непрочитанных сообщений. Готика / Gothika [ужасы, триллер, детектив, 2003] BDRip, Dub [Лицензия]

salma3

97 | 3

1.45 ГБ

В этой теме нет новых непрочитанных сообщений. Темнота наступает / Darkness Falls [ужасы, триллер, детектив, 2003] BDRip, Dub

salma3

101 | 9

1.45 ГБ

В этой теме нет новых непрочитанных сообщений. Скажи что-нибудь / Kucch To Hai [ужасы, триллер, драма, мелодрама, детектив, 2003] DVDRip, Dvo

salma3

6 | 8

1.47 ГБ

В этой теме нет новых непрочитанных сообщений. Кровавая жатва / Haute tension [ужасы, триллер, драма, 2003] HDRip-AVC, Mvo [Лицензия]

salma3

105 | 10

1.42 ГБ

В этой теме нет новых непрочитанных сообщений. Дневник Елены Римбауер / The Diary of Ellen Rimbauer [ужасы, триллер, драма, детектив, 2003] DVDRip, Mvo+Avo [Лицензия]

salma3

9 | 3

1.46 ГБ

В этой теме нет новых непрочитанных сообщений. Пригородная готика / Suburban Gothic (Ричард Бейтс мл.) [Ужасы, мелодрама, комедия, 2014] WEB-DLRip, mvo

Dracon

0 | 1

1.36 ГБ

В этой теме нет новых непрочитанных сообщений. Пригородная готика / Suburban Gothic (Ричард Бейтс мл.) [Ужасы, мелодрама, комедия, 2014] WEB-DL 720p, mvo

Dracon

17 | 2

2.95 ГБ


Начать новую тему Ответить на тему  [ 1 сообщение ] 




Для Мосгорсуда, Роскомнадзора и рекламодателей:: mosgorsud-torrent[собачка]yandex.ru