Торрент файл
скачать торрент магнет ссылка Добавлен: 15 янв 2012, 23:27
Размер: 2.19 ГБ
Сидеров: 33
Личеров: 10
Автор

СообщениеДобавлено: 15 янв 2012, 23:27 

Не в сети
Супермодератор
Аватара пользователя
Дата регистрации:
11 апр 2010, 18:10
Спасибо: 5963 / 7
Сообщения: 56762
Пункт назначения 5 / Final Destination 5


Перевод: Профессиональный (полное дублирование)
Субтитры: Русские, Английские
Формат: HDRip-AVC, MKV, H.264, AC3
Страна: США
Режиссер: Стивен Куэйл
Жанр: Ужасы, триллер
Продолжительность: 01:31:49
Год выпуска: 2011

В ролях: Николас Д’Агосто, Эмма Белл, Майлз Фишер, Эллен Ро, Жаклин МакИннес Вуд, П.Дж. Бирн, Арлен Эскарпета, Дэвид Кокнер, Кортни Б. Вэнс, Тони Тодд

Описание: Проходит двенадцать лет после взрыва авиарейса N 180. У Сэма Лоутона происходит жуткое видение: подвесной мост, на котором он находится со своими друзьями, рушится, и многие люди, включая его самого, погибают. Сэм начинает паниковать и уговаривает своих друзей и ещё нескольких «счастливчиков» уйти с моста. И как раз вовремя: как и предвидел Сэм, мост рушится на их глазах и множество людей погибает. Однако Сэм и его девушка Молли понимают, что смерть дала им лишь отсрочку, так как выжившие начинают погибать один за другим. Он должен понять, как обманув смерть однажды, обмануть её ещё раз, прежде чем настанет его очередь.


Видео: 1280x532(2,40:1),23,976 кадр/сек,AVC(x264),High@L4.1~2509Kbps,0.154bit/pixel
Аудио 1: Русский:48,0 КГц,AC3 6 каналов,(L,C,R,l,r) + LFE,~448kbps Профессиональный (полное дублирование)
Аудио 2: Английский:48,0 КГц,AC3 6 каналов,(L,C,R,l,r) + LFE,~448kbps (оригинал)[/field]




Общее
Уникальный идентификатор: 187881031594047106433318724424215167367 (0x8D58920A83A2A1908194CA63C3FA0187)
Полное имя: D:\Интернет\Punkt naznacheniya-5.mkv
Формат: Matroska
Версия формата: Version 2
Размер файла: 2,19 Гбайт
Продолжительность: 1 ч. 31 м.
Общий поток: 3406 Кбит/сек
Название фильма: Punkt naznacheniya-5
Дата кодирования: UTC 2011-12-14 14:42:54
Программа кодирования: mkvmerge v4.8.0 ('I Got The...') сборка от May 24 2011 03:12:58
Библиотека кодирования: libebml v1.2.0 + libmatroska v1.1.0

Видео
Идентификатор: 1
Формат: AVC
Формат/Информация: Advanced Video Codec
Профиль формата: High@L4.1
Параметр CABAC формата: Да
Параметр ReFrames формата: 10 кадров
Идентификатор кодека: V_MPEG4/ISO/AVC
Продолжительность: 1 ч. 31 м.
Битрейт: 2509 Кбит/сек
Ширина: 1280 пикс.
Высота: 532 пикс.
Соотношение сторон: 2,40:1
Частота кадров: 23,976 кадр/сек
Цветовое пространство: YUV
Подвыборка цветности: 4:2:0
Битовая глубина: 8 бит
Тип развёртки: Прогрессивная
Бит/(Пиксели*Кадры): 0.154
Размер потока: 1,57 Гбайт (72%)
Заголовок: Punkt naznacheniya-5.chopper887
Библиотека кодирования: x264 core 116 r2074 2641b9e
Настройки программы: cabac=1 / ref=10 / deblock=1:-2:-1 / analyse=0x3:0x133 / me=umh / subme=11 / psy=1 / psy_rd=1.00:0.10 / mixed_ref=1 / me_range=32 / chroma_me=1 / trellis=2 / 8x8dct=1 / cqm=0 / deadzone=21,11 / fast_pskip=0 / chroma_qp_offset=-3 / threads=12 / sliced_threads=0 / nr=0 / decimate=1 / interlaced=0 / bluray_compat=0 / constrained_intra=0 / bframes=9 / b_pyramid=2 / b_adapt=2 / b_bias=0 / direct=3 / weightb=1 / open_gop=0 / weightp=2 / keyint=250 / keyint_min=23 / scenecut=40 / intra_refresh=0 / rc_lookahead=80 / rc=2pass / mbtree=1 / bitrate=2509 / ratetol=1.0 / qcomp=0.60 / qpmin=10 / qpmax=51 / qpstep=4 / cplxblur=20.0 / qblur=0.5 / ip_ratio=1.40 / aq=1:1.00
Язык: English

Аудио #1
Идентификатор: 2
Формат: AC-3
Формат/Информация: Audio Coding 3
Расширение режима: CM (complete main)
Идентификатор кодека: A_AC3
Продолжительность: 1 ч. 31 м.
Вид битрейта: Постоянный
Битрейт: 448 Кбит/сек
Каналы:
Расположение каналов: Front: L C R, Side: L R, LFE
Частота: 48,0 КГц
Битовая глубина: 16 бит
Метод сжатия: С потерями
Размер потока: 294 Мбайт (13%)
Заголовок: Дубляж

Аудио #2
Идентификатор: 3
Формат: AC-3
Формат/Информация: Audio Coding 3
Расширение режима: CM (complete main)
Идентификатор кодека: A_AC3
Продолжительность: 1 ч. 31 м.
Вид битрейта: Постоянный
Битрейт: 448 Кбит/сек
Каналы: 6 каналов
Расположение каналов: Front: L C R, Side: L R, LFE
Частота: 48,0 КГц
Битовая глубина: 16 бит
Метод сжатия: С потерями
Размер потока: 294 Мбайт (13%)
Заголовок: Английский

Текст #1
Идентификатор: 4
Формат: UTF-8
Идентификатор кодека: S_TEXT/UTF8
Идентификатор кодека/Информация: UTF-8 Plain Text
Заголовок: Русские

Текст #2
Идентификатор: 5
Формат: UTF-8
Идентификатор кодека: S_TEXT/UTF8
Идентификатор кодека/Информация: UTF-8 Plain Text
Заголовок












Поделиться:




реклама партнёра


Вернуться к началу
 Профиль Отправить личное сообщение  
 
   Похожие торренты   Автор   Торрент   Размер 
В этой теме нет новых непрочитанных сообщений. Пункт назначения 4 / The Final Destination [ужасы, триллер, 2009] BDRip-AVC, Dub

salma3

38 | 20

744.04 МБ

В этой теме нет новых непрочитанных сообщений. BBC: Место назначения - Титан / Destination Titan (Пол Ванезис) [2011, документальный, космос, HDTVRip] VO

salma3

0 | 1

843.21 МБ

В этой теме нет новых непрочитанных сообщений. Последний экзамен / Final Exam [Ужасы, триллер, 1981] HDRip-AVC, Avo

salma3

16 | 10

742.4 МБ

В этой теме нет новых непрочитанных сообщений. Обитель зла: Последняя глава / Resident Evil: The Final Chapter [Ужасы, фантастика, боевик, триллер, 2016] HDRip-1080p, dub [Трейлер]

marya111

775 | 8

101.03 МБ

В этой теме нет новых непрочитанных сообщений. Финальный террор / The Final Terror [ужасы, 1983] HDRip, Dvo

salma3

51 | 27

1.49 ГБ

В этой теме нет новых непрочитанных сообщений. Экзорцизм Молли Хартли / The Exorcism of Molly Hartley (Стивен Р. Монро) [Ужасы, 2015] HDRip, dvo

Dracon

5737 | 208

1.46 ГБ

В этой теме нет новых непрочитанных сообщений. Последние девушки / The Final Girls (Тодд Штраус-Шульсон) [Ужасы, комедия, 2015] HDRip, Mvo [iTunes]

Dracon

2653 | 46

1.45 ГБ


Начать новую тему Ответить на тему  [ 1 сообщение ] 




Для Мосгорсуда, Роскомнадзора и рекламодателей:: mosgorsud-torrent[собачка]yandex.ru