Торрент файл
скачать торрент магнет ссылка Добавлен: 15 янв 2012, 23:26
Размер: 2.1 ГБ
Сидеров: 41
Личеров: 8
Автор

СообщениеДобавлено: 15 янв 2012, 23:26 

Не в сети
Супермодератор
Аватара пользователя
Дата регистрации:
11 апр 2010, 18:10
Спасибо: 5799 / 7
Сообщения: 56779
[b]Пункт назначения 5 / Final Destination 5[/b]


Перевод: Профессиональный (полное дублирование)
Субтитры: отсутствуют
Формат: HDRip-AVC, MKV, H.264, AC3

Страна:США

Режиссер: Стивен Куэйл
Жанр: ужасы, триллер
Продолжительность: 01:31:50
Год выпуска: 2011

В ролях: Николас Д’Агосто, Эмма Белл, Майлз Фишер, Эллен Ро, Жаклин МакИннес Вуд, П.Дж. Бирн, Арлен Эскарпета, Дэвид Кокнер, Кортни Б. Вэнс, Тони Тодд.

Описание: Проходит двенадцать лет после взрыва авиарейса N 180. У Сэма Лоутона происходит жуткое видение: подвесной мост, на котором он находится со своими друзьями, рушится, и многие люди, включая его самого, погибают. Сэм начинает паниковать и уговаривает своих друзей и ещё нескольких «счастливчиков» уйти с моста. И как раз вовремя: как и предвидел Сэм, мост рушится на их глазах и множество людей погибает. Однако Сэм и его девушка Молли понимают, что смерть дала им лишь отсрочку, так как выжившие начинают погибать один за другим. Он должен понять, как обманув смерть однажды, обмануть её ещё раз, прежде чем настанет его очередь.



Видео: 1024x432 (2.35:1) 23.976 fps, AVC MPEG-4 High@L4.1 ~2885 kbps avg, 0.272 bit/pixel
Аудио: 48 kHz, AC3 Dolby Digital, 3/2 (L,C,R,l,r) + LFE ch, ~384 kbps avg

Релиз группы

Рип от: __


General
Unique ID: 211214962967198285767403824568519101957 (0x9EE685AE1ED42241A647AA84F0E40E05)
Complete name: D:\Мои рипы\Final.destination.5.2011.D.HDRip.mkv
Format: Matroska
Format version: Version 2
File size: 2.10 GiB
Duration: 1h 31mn
Overall bit rate: 3 266 Kbps
Movie name: Final.Destination.5.S.I.D
Encoded date: UTC 2011-12-20 16:04:36
Writing application: mkvmerge v2.9.8 ('C'est le bon') built on Aug 13 2009 12:49:06
Writing library: libebml v0.7.7 + libmatroska v0.8.1

Video
ID: 1
Format: AVC
Format/Info: Advanced Video Codec
Format profile: High@L4.1
Format settings, CABAC: Yes
Format settings, ReFrames: 8 frames
Codec ID: V_MPEG4/ISO/AVC
Duration: 1h 31mn
Bit rate: 2 885 Kbps
Width: 1 024 pixels
Height: 432 pixels
Display aspect ratio: 2.35:1
Frame rate: 23.976 fps
Color space: YUV
Chroma subsampling: 4:2:0
Bit depth: 8 bits
Scan type: Progressive
Bits/(Pixel*Frame): 0.272
Stream size: 1.81 GiB (86%)
Title: RG Films Tfile
Writing library: x264 core 119 r2106 07efeb4
Encoding settings: cabac=1 / ref=8 / deblock=1:-1:-1 / analyse=0x3:0x111 / me=umh / subme=0 / psy=1 / psy_rd=1.00:0.10 / mixed_ref=1 / me_range=16 / chroma_me=1 / trellis=2 / 8x8dct=1 / cqm=0 / deadzone=21,11 / fast_pskip=0 / chroma_qp_offset=-1 / threads=6 / sliced_threads=0 / nr=0 / decimate=1 / interlaced=0 / bluray_compat=0 / constrained_intra=0 / bframes=8 / b_pyramid=2 / b_adapt=2 / b_bias=0 / direct=1 / weightb=1 / open_gop=0 / weightp=2 / keyint=250 / keyint_min=23 / scenecut=40 / intra_refresh=0 / rc_lookahead=40 / rc=abr / mbtree=1 / bitrate=2885 / ratetol=1.0 / qcomp=0.60 / qpmin=0 / qpmax=69 / qpstep=4 / ip_ratio=1.40 / aq=1:1.00
Language: English
Default: Yes
Forced: No

Audio
ID: 2
Format: AC-3
Format/Info: Audio Coding 3
Mode extension: CM (complete main)
Codec ID: A_AC3
Duration: 1h 31mn
Bit rate mode: Constant
Bit rate: 384 Kbps
Channel(s): 6 channels
Channel positions: Front: L C R, Side: L R, LFE
Sampling rate: 48.0 KHz
Bit depth: 16 bits
Compression mode: Lossy
Stream size: 252 MiB (12%)
Title: Дубляж
Language: Russian
Default: Yes
Forced: No








Поделиться:




реклама партнёра


Вернуться к началу
 Профиль Отправить личное сообщение  
 
   Похожие торренты   Автор   Торрент   Размер 
В этой теме нет новых непрочитанных сообщений. Пункт назначения: Коллекция / Final Destination: The Collection [Ужасы, фантастика, триллер, детектив, 2000-2011] BDRip

vitalikmd

42 | 10

10.6 ГБ

В этой теме нет новых непрочитанных сообщений. Агент Коди Бэнкс 2: Пункт назначения - Лондон / Agent Cody Banks 2: Destination London [боевик, приключения, семейный, 2004] DVD9, Dub+Dvo+Sub

salma3

13 | 5

6.46 ГБ

В этой теме нет новых непрочитанных сообщений. Навстречу шторму / Into the Storm (Стивен Куэйл) [2014, фантастика, боевик, приключения, WEB-DLRip | iTunes]

Nickolas3435

135 | 3

702.84 МБ

В этой теме нет новых непрочитанных сообщений. Обитель зла: Последняя глава / Resident Evil: The Final Chapter [Ужасы, фантастика, боевик, триллер, 2016] HDRip-1080p, dub [Трейлер]

marya111

775 | 8

101.03 МБ

В этой теме нет новых непрочитанных сообщений. Экзорцизм Молли Хартли / The Exorcism of Molly Hartley (Стивен Р. Монро) [Ужасы, 2015] HDRip, dvo

Dracon

5707 | 207

1.46 ГБ

В этой теме нет новых непрочитанных сообщений. Последние девушки / The Final Girls (Тодд Штраус-Шульсон) [Ужасы, комедия, 2015] HDRip, Mvo [iTunes]

Dracon

2611 | 45

1.45 ГБ

В этой теме нет новых непрочитанных сообщений. Командный пункт / War Room [драма, 2015] HDRip, Mvo [iTunes]

Dracon

574 | 67

1.46 ГБ


Начать новую тему Ответить на тему  [ 1 сообщение ] 




Для Мосгорсуда, Роскомнадзора и рекламодателей:: mosgorsud-torrent[собачка]yandex.ru