Торрент файл
скачать торрент магнет ссылка Добавлен: 15 янв 2012, 23:25
Размер: 2.06 ГБ
Сидеров: 48
Личеров: 12
Автор

СообщениеДобавлено: 15 янв 2012, 23:25 

Не в сети
Супермодератор
Аватара пользователя
Дата регистрации:
11 апр 2010, 18:10
Спасибо: 5802 / 7
Сообщения: 56779
Ван Хельсинг / Van Helsing

Перевод: Профессиональный (полное дублирование), cубтитры: отсутствуют
Формат: HDRip-AVC, MKV, H.264, AC3
Страна: США, Чехия
Режиссер: Стивен Соммерс
Жанр: Фантастика, боевик, триллер, драма, детектив, приключения
Продолжительность: 02:11:38
Год выпуска: 2004
В ролях: Хью Джекман, Кейт Бекинсейл, Ричард Роксбург, Дэвид Уэнэм, Шулер Хенсли, Елена Анайя, Уилл Кемп, Кевин Дж. О’Коннор, Алан Армстронг, Сильвия Коллок
Описание: Глубоко в Карпатах лежит таинственная страна Трансильвания — мир, в котором зло встречается на каждом шагу, мир, в котором опасность оживает с заходом солнца, и где монстры, живущие в глубине человеческих кошмаров, обретают форму. В этот мир попадает легендарный охотник на чудовищ Ван Хельсинг, рождённый на страницах романа «Дракула» Брэма Стокера.
В своей непрерывной битве против сил зла и за освобождение мира от порождений ада, Ван Хельсинг, по заданию секретного общества, отправляется в Трансильванию, чтобы скрестить оружие со смертельно опасным, наделённым неведомой силой графом Дракулой. На помощь ему внезапно приходит бесстрашная Анна Валери, поставившая целью избавить свою семью от векового проклятья, наложенного убитым вампиром.


Рейтинг MPAA: PG-13
Видео: 896 x 504 (16:9), 23,976 fps, AVC (х264) High@L4.1 ~ 1800 кbps avg, 0.166 bit/pixel
Аудио: 48 kHz, AC3 Dolby Digital, 3/2 (L,C,R,l,r) + LFE ch, ~448 kbps avg
Релиз от Dean24
Релиз группы

Видео:
Идентификатор: 1
Формат: AVC
Формат/Информация: Advanced Video Codec
Профиль формата: High@L4.1
Параметр CABAC формата: Да
Параметр ReFrames формата: 3 кадра
Идентификатор кодека: V_MPEG4/ISO/AVC
Продолжительность: 2 ч. 11 м.
Битрейт: 1800 Кбит/сек
Ширина: 896 пикс.
Высота: 504 пикс.
Соотношение сторон: 16:9
Соотношение сторон в оригинале: 16:9
Режим частоты кадров: Переменный
Частота кадров: 23,976 кадр/сек
Цветовое пространство: YUV
Подвыборка цветности: 4:2:0
Битовая глубина: 8 бит
Тип развёртки: Прогрессивная
Бит/(Пиксели*Кадры): 0.166
Размер потока: 1,60 Гбайт (78%)
Заголовок: Ван Хельсинг
Библиотека кодирования: x264 core 116 r2019M 9cc407d
Настройки программы: cabac=1 / ref=3 / deblock=1:0:0 / analyse=0x3:0x133 / me=hex / subme=7 / psy=1 / psy_rd=1.00:0.20 / mixed_ref=1 / me_range=16 / chroma_me=1 / trellis=1 / 8x8dct=1 / cqm=0 / deadzone=21,11 / fast_pskip=1 / chroma_qp_offset=-3 / threads=6 / sliced_threads=0 / nr=0 / decimate=1 / interlaced=0 / bluray_compat=0 / constrained_intra=0 / bframes=3 / b_pyramid=1 / b_adapt=2 / b_bias=0 / direct=3 / weightb=1 / open_gop=0 / weightp=2 / keyint=230 / keyint_min=23 / scenecut=40 / intra_refresh=0 / rc_lookahead=40 / rc=abr / mbtree=1 / bitrate=1800 / ratetol=1.0 / qcomp=0.60 / qpmin=10 / qpmax=51 / qpstep=4 / ip_ratio=1.40 / aq=1:1.00
Язык: English

Аудио:
Идентификатор: 2
Формат: AC-3
Формат/Информация: Audio Coding 3
Расширение режима: CM (complete main)
Идентификатор кодека: A_AC3
Продолжительность: 2 ч. 11 м.
Вид битрейта: Постоянный
Битрейт: 448 Кбит/сек
Каналы: 6 каналов
Расположение каналов: Front: L C R, Side: L R, LFE
Частота: 48,0 КГц
Битовая глубина: 16 бит
Метод сжатия: С потерями
Размер потока: 422 Мбайт (20%)
Заголовок: Дублированный
Язык: Russian

[b]







[b]Поделиться:




реклама партнёра


Вернуться к началу
 Профиль Отправить личное сообщение  
 
   Похожие торренты   Автор   Торрент   Размер 
В этой теме нет новых непрочитанных сообщений. Ван Хельсинг / Van Helsing [фэнтези, боевик, триллер, детектив,, 2004] BDRip, Dub [Лицензия]

salma3

253 | 12

1.46 ГБ

В этой теме нет новых непрочитанных сообщений. Ван Хельсинг / Van Helsing / 1 сезон 1-12 серии из 13 [Фэнтези, боевик, триллер, драма, 2016] WEB-DLRip, Mvo [LostFilm]

salma3

152 | 240

6.73 ГБ

В этой теме нет новых непрочитанных сообщений. Ван Хельсинг / Van Helsing [01х01-02 из 13] [фэнтези, боевик, драма, 2016] WEBRip 720p, Mvo [LostFilm]

salma3

47 | 16

1.86 ГБ

В этой теме нет новых непрочитанных сообщений. Ван Хельсинг / Van Helsing [01x01-10 из 13] (Фэнтези, боевик, драма, 2016) HDTV 720p | Jetvis Studio

marya111

4 | 12

9.18 ГБ

В этой теме нет новых непрочитанных сообщений. Ван Хельсинг / Van Helsing [01x01-06 из 13] (Ужасы, боевик, драма, фэнтези, вампиры, 2016) HDTVRip | IdeaFilm

marya111

0 | 0

3.41 ГБ

В этой теме нет новых непрочитанных сообщений. Ван Хельсинг / Van Helsing [01x01-12 из 13] ( Фэнтези, боевик, драма, 2016) HDTV 720p | Jetvis Studio

marya111

22 | 36

11.4 ГБ

В этой теме нет новых непрочитанных сообщений. Ван Хельсинг / Van Helsing [01x01-09 из 13] (Фэнтези, боевик, драма, 2016) HDTV 720p | Jetvis Studio

marya111

12 | 20

8.2 ГБ


Начать новую тему Ответить на тему  [ 1 сообщение ] 




Для Мосгорсуда, Роскомнадзора и рекламодателей:: mosgorsud-torrent[собачка]yandex.ru