Торрент файл
скачать торрент магнет ссылка Добавлен: 15 янв 2012, 23:25
Размер: 2.05 ГБ
Сидеров: 21
Личеров: 12
Автор

СообщениеДобавлено: 15 янв 2012, 23:25 

Не в сети
Супермодератор
Аватара пользователя
Дата регистрации:
11 апр 2010, 18:10
Спасибо: 5801 / 7
Сообщения: 56779
Мертвеход / The Revenant

Перевод: Любительский (многоголосый закадровый),
cубтитры: отсутствуют

Формат: HDRip-AVC, MKV, x264, AC3
Страна: США

Режиссер: Д. Керри Прайор

Жанр: ужасы, комедия
Продолжительность: 01:57:06
Год выпуска: 2009

В ролях: Дэвид Андерс, Сьюзан Эверитт, Бернардо Бадилло, Брук Бикфорд, Эми Корреа, Брэкстон Дэвис, Дон Данн, Марк Елиас, Стэйси Мишель Голд

Описание: Два кореша, один уезжает воевать и погибает в перестрелке, его хоронят. Все было бы по обычному, если бы он не ожил в гробу после похорон. И что ему остается делать, как не идти к своему обезбашенному другу за помощью. Выясняется, что зомбо-корешу, чтобы не разлагаться нужно пить человеческую кровь, ну, а его дружбан берется помогать ему... Вот тут то и начинается заварушка.



Видео: 1056x448 (2,35:1), 23,976 fps, AVC (х264) High@L4.1, ~ 1868 Кбит/сек, 0.165 bit/pixel
Аудио#1: Русский:48 kHz, AC3 Dolby Digital, 3/2 (L,C,R,l,r) + LFE ch, ~448 kbps avg [Любительский (многоголосый закадровый)] ViruseProject
Аудио#2: Английский:48 kHz, AC3 Dolby Digital, 2 (L,R) сh, ~192 kbps avg [Оригинал]

Доп. информация:
ПРИСУТСТВУЕТ НЕНОРМАТИВНАЯ ЛЕКСИКА!

ТРЕЙЛЕР

Видео
Идентификатор: 1
Формат: AVC
Формат/Информация: Advanced Video Codec
Профиль формата: High@L4.1
Параметр CABAC формата: Да
Параметр ReFrames формата: 11 кадры
Идентификатор кодека: V_MPEG4/ISO/AVC
Продолжительность: 1 ч. 57 м.
Битрейт: 1868 Кбит/сек
Ширина: 1056 пикс.
Высота: 448 пикс.
Соотношение сторон: 2,35:1
Режим частоты кадров: Переменный
Частота кадров: 23,976 кадр/сек
Цветовое пространство: YUV
Подвыборка цветности: 4:2:0
Битовая глубина: 8 бит
Тип развёртки: Прогрессивная
Бит/(Пиксели*Кадры): 0.165
Размер потока: 1,49 Гбайт (72%)
Заголовок: Mertvehod.2009.L2.HDRip.x264.potroks
Библиотека кодирования: x264 core 116 r2019M 9cc407d
Настройки программы: cabac=1 / ref=12 / deblock=1:-2:-2 / analyse=0x3:0x133 / me=umh / subme=10 / psy=1 / psy_rd=1.00:0.20 / mixed_ref=1 / me_range=42 / chroma_me=1 / trellis=2 / 8x8dct=1 / cqm=0 / deadzone=21,11 / fast_pskip=0 / chroma_qp_offset=-3 / threads=8 / sliced_threads=0 / nr=0 / decimate=1 / interlaced=0 / bluray_compat=0 / constrained_intra=0 / bframes=10 / b_pyramid=1 / b_adapt=2 / b_bias=0 / direct=3 / weightb=1 / open_gop=0 / weightp=2 / keyint=230 / keyint_min=23 / scenecut=40 / intra_refresh=0 / rc_lookahead=40 / rc=2pass / mbtree=1 / bitrate=1868 / ratetol=1.0 / qcomp=0.60 / qpmin=10 / qpmax=51 / qpstep=4 / cplxblur=20.0 / qblur=0.5 / ip_ratio=1.37 / aq=1:1.20
Язык: English

Аудио #1
Идентификатор: 2
Формат: AC-3
Формат/Информация: Audio Coding 3
Расширение режима: CM (complete main)
Идентификатор кодека: A_AC3
Продолжительность: 1 ч. 57 м.
Вид битрейта: Постоянный
Битрейт: 448 Кбит/сек
Канал(ы): 6 канала(ов)
Расположение каналов: Front: L C R, Side: L R, LFE
Частота: 48,0 КГц
Битовая глубина: 16 бит
Метод сжатия: С потерями
Размер потока: 375 Мбайт (18%)
Заголовок: L2[ViruseProject]
Язык: Russian

Аудио #2
Идентификатор: 3
Формат: AC-3
Формат/Информация: Audio Coding 3
Расширение режима: CM (complete main)
Идентификатор кодека: A_AC3
Продолжительность: 1 ч. 57 м.
Вид битрейта: Постоянный
Битрейт: 192 Кбит/сек
Канал(ы): 2 канала(ов)
Расположение каналов: Front: L R
Частота: 48,0 КГц
Битовая глубина: 16 бит
Метод сжатия: С потерями
Размер потока: 161 Мбайт (8%)
Язык: English






Поделиться:




реклама партнёра


Вернуться к началу
 Профиль Отправить личное сообщение  
 
   Похожие торренты   Автор   Торрент   Размер 
В этой теме нет новых непрочитанных сообщений. Стригой / Strigoi [ужасы, фэнтези, драма, комедия, 2009] HDRip. Mvo

salma3

27 | 4

1.45 ГБ

В этой теме нет новых непрочитанных сообщений. Tad Morose - Revenant [2013, Progressive Power Metal, MP3]

PriZraK

0 | 1

122.28 МБ

В этой теме нет новых непрочитанных сообщений. Awakening The Revenant - Reclaim Your Throne [2014, Deathcore, MP3]

PriZraK

0 | 2

86.13 МБ

В этой теме нет новых непрочитанных сообщений. Jay Grafe - Revenant Dream [2014, Progressive Metal,Instrumental, MP3]

PriZraK

0 | 1

68.1 МБ

В этой теме нет новых непрочитанных сообщений. Последние каникулы 2 / Cabin Fever 2: Spring Fever [ужасы, триллер, комедия, 2009] HDRip, Mvo

salma3

126 | 20

701.67 МБ

В этой теме нет новых непрочитанных сообщений. Выживший / The Revenant (Алехандро Гонсалес Иньярриту) [триллер, драма, приключения, вестерн, 2015] WEBRip, mvo

Dracon

312 | 3

2.05 ГБ

В этой теме нет новых непрочитанных сообщений. Выживший / The Revenant (Алехандро Гонсалес Иньярриту) [триллер, драма, приключения, вестерн, 2015] DVDScr [Есарев]

Dracon

2395 | 80

2.05 ГБ


Начать новую тему Ответить на тему  [ 1 сообщение ] 




Для Мосгорсуда, Роскомнадзора и рекламодателей:: mosgorsud-torrent[собачка]yandex.ru