Торрент файл
скачать торрент магнет ссылка Добавлен: 15 янв 2012, 23:24
Размер: 2.18 ГБ
Сидеров: 24
Личеров: 5
Автор

СообщениеДобавлено: 15 янв 2012, 23:24 

Не в сети
Супермодератор
Аватара пользователя
Дата регистрации:
11 апр 2010, 18:10
Спасибо: 5801 / 7
Сообщения: 56779
Безнадега / Desperation

Перевод: Профессиональный (многоголосый, закадровый), cубтитры: отсутствуют
Формат: DVDRip, MKV, H.264, AC3
Страна: США
Режиссер: Мик Гэррис
Жанр: ужасы, фэнтези, триллер, драма, детектив
Продолжительность: 02:10:43
Год выпуска: 2006
В ролях: Том Скеррит, Стивен Уэбер, Аннабет Гиш, Чарльз Дёрнинг, Мэтт Фрюэр, Генри Томас, Шэйн Хабуча, Келли Овертон, Силва Келегиан, Рон Перлман
Описание: Несколько путешественников, проезжающих через городок под названием Безнадега, затерявшийся посреди пустыни в штате Невада, арестованы местным шерифом. Так они становятся пленниками одержимого демонами маньяка, который обладает способностью призывать себе на помощь гремучих змей и ядовитых пауков…

Видео: 720x408 (16:9), 29,970 fps, MPEG4 AVC (х264), High@L4.1 ~2000 kbps avg, 0.227 bit/pixel
Аудио#1:Русский: 48 kHz,AC-3, 2 ch, ~192.00 kbps avg [Профессиональный (многоголосый, закадровый, ТВ3)]
Аудио#2:Русский: 48 kHz,AC-3, 2 ch, ~192.00 kbps avg [Профессиональный (двухголосый, закадровый, НТВ+)]


Автор РИПа:
Фильм снят по произведению Стивена Кинга

Общее
Уникальный идентификатор : 215204835480369483883607320717183520197 (0xA1E6F195332192CDBC07A725B3418DC5)
Полное имя : f:\Downloads\desperation_[tfile.ru].mkv
Формат : Matroska
Версия формата : Version 2
Размер файла : 2,18 Гбайт
Продолжительность : 2 ч. 10 м.
Общий поток : 2385 Кбит/сек
Дата кодирования : UTC 2011-12-29 07:23:15
Программа кодирования : mkvmerge v4.6.0 ('Still Crazy After All These Years') сборка от Mar 10 2011 02:50:32
Библиотека кодирования : libebml v1.2.0 + libmatroska v1.1.0

Видео
Идентификатор : 1
Формат : AVC
Формат/Информация : Advanced Video Codec
Профиль формата : High@L4.1
Параметр CABAC формата : Да
Параметр ReFrames формата : 3 кадра
Режим смешивания : Header stripping
Идентификатор кодека : V_MPEG4/ISO/AVC
Продолжительность : 2 ч. 10 м.
Битрейт : 2000 Кбит/сек
Ширина : 720 пикселей
Высота : 408 пикселей
Соотношение сторон : 16:9
Соотношение сторон в оригинале : 16:9
Режим частоты кадров : Переменный
Частота кадров : 29,970 кадров/сек
Цветовое пространство : YUV
Субдискретизация насыщенности : 4:2:0
Битовая глубина : 8 бит
Тип развёртки : MBAFF
Бит/(Пиксели*Кадры) : 0.227
Размер потока : 1,78 Гбайт (82%)
Библиотека кодирования : x264 core 116 r2019M 9cc407d
Настройки программы : cabac=1 / ref=3 / deblock=1:-1:-1 / analyse=0x3:0x133 / me=hex / subme=7 / psy=1 / psy_rd=1.00:0.15 / mixed_ref=1 / me_range=16 / chroma_me=1 / trellis=1 / 8x8dct=1 / cqm=0 / deadzone=21,11 / fast_pskip=1 / chroma_qp_offset=-3 / threads=8 / sliced_threads=0 / nr=0 / decimate=1 / interlaced=tff / bluray_compat=0 / constrained_intra=0 / bframes=3 / b_pyramid=1 / b_adapt=2 / b_bias=0 / direct=3 / weightb=1 / open_gop=0 / weightp=0 / keyint=290 / keyint_min=29 / scenecut=40 / intra_refresh=0 / rc_lookahead=40 / rc=abr / mbtree=1 / bitrate=2000 / ratetol=1.0 / qcomp=0.60 / qpmin=10 / qpmax=51 / qpstep=4 / vbv_maxrate=9000 / vbv_bufsize=1835 / nal_hrd=none / ip_ratio=1.40 / aq=1:1.00
Язык : English
Default : Да
Forced : Нет

Аудио #1
Идентификатор : 2
Формат : AC-3
Формат/Информация : Audio Coding 3
Расширение режима : CM (complete main)
Режим смешивания : Header stripping
Идентификатор кодека : A_AC3
Продолжительность : 2 ч. 10 м.
Вид битрейта : Постоянный
Битрейт : 192 Кбит/сек
Каналы : 2 канала
Расположение каналов : Front: L R
Частота : 48,0 КГц
Битовая глубина : 16 бит
Метод сжатия : С потерями
Размер потока : 180 Мбайт (8%)
Заголовок : MVO
Язык : Russian
Default : Да
Forced : Нет

Аудио #2
Идентификатор : 3
Формат : AC-3
Формат/Информация : Audio Coding 3
Расширение режима : CM (complete main)
Режим смешивания : Header stripping
Идентификатор кодека : A_AC3
Продолжительность : 2 ч. 10 м.
Вид битрейта : Постоянный
Битрейт : 192 Кбит/сек
Каналы : 2 канала
Расположение каналов : Front: L R
Частота : 48,0 КГц
Битовая глубина : 16 бит
Метод сжатия : С потерями
Размер потока : 180 Мбайт (8%)
Заголовок : DVO
Язык : Russian
Default : Нет
Forced : Нет
















Поделиться:




реклама партнёра


Вернуться к началу
 Профиль Отправить личное сообщение  
 
   Похожие торренты   Автор   Торрент   Размер 
В этой теме нет новых непрочитанных сообщений. Зубастики. Квадрология / Critters. Quadrilogy (Стивен Херек, Мик Гэррис, Кристин Питерсон, Руперт Харви.) [ужасы, фантастика, боевик, триллер, комедия, 1986-1992] WEB-DLRip-AVC, Mvo+Avo+Sub

Dracon

60 | 14

8.72 ГБ

В этой теме нет новых непрочитанных сообщений. Читая мысли / Like minds [ужасы, триллер, криминал, детектив, 2006] DVDRip, Mvo

salma3

137 | 12

1.37 ГБ

В этой теме нет новых непрочитанных сообщений. Круг / Cirkeln [ужасы, фэнтези, триллер, драма, детектив, 2015] BDRip, avo

marya111

46 | 7

1.46 ГБ

В этой теме нет новых непрочитанных сообщений. Круг / Cirkeln [ужасы, фэнтези, триллер, драма, детектив, 2015] BDRip 720p, Avo

salma3

53 | 17

7.03 ГБ

В этой теме нет новых непрочитанных сообщений. Сверхъестественное / Supernatural [12x07 из 23] [ужасы, фэнтези, триллер, драма, детектив, 2016] WEB-DLRip, Mvo [BaibaKo]

salma3

18 | 58

3.42 ГБ

В этой теме нет новых непрочитанных сообщений. Гензель и Гретель / Henjel gwa Geuretel [ужасы, фэнтези, триллер, драма, детектив, 2007] BDRip 1080p, Dvo+Avo+Sub

salma3

71 | 28

11.76 ГБ

В этой теме нет новых непрочитанных сообщений. Багровый пик / Crimson Peak [ужасы, фэнтези, триллер, драма, мелодрама, детектив, 2015] BDRip-AVC, Dub [лицензия]

salma3

203 | 23

2.18 ГБ


Начать новую тему Ответить на тему  [ 1 сообщение ] 




Для Мосгорсуда, Роскомнадзора и рекламодателей:: mosgorsud-torrent[собачка]yandex.ru